img image001 image001 image001 image001 image001 image001 image001 image001 image001 image001 image001 image001 image001 image001 image001

Planets Sun Sun Sun
Статистика раздачи
Автор: PriZraK | Размер: 742.81 МБ | Добавлен: 05 дек 2015
Раздают: 26    Качают: 34
Скачать торрент
Скачать торрент
Описание торрента

СообщениеДобавлено: 05 дек 2015 

Страна: СССР
Производство: к/ст имени М. Горького

Жанр: боевик, приключения
Год выпуска: 1983
Продолжительность: 01:13:42

Перевод: Не требуется
Cубтитры: нет
Оригинальная аудиодорожка: русский

Режиссер: Юрий Борецкий

В ролях:
Андрей Ростоцкий, Хамза Умаров, Нурмухан Жантурин, Ёдгар Сагдиев, Гульнара Дусматова, Биродар Атабаев, Дильшот Исмаилов, Николай Карпов, Тухтасын Муратов...
Полный список актёров

Описание:
Фильм посвящён памяти заслуженного мастера спорта, основоположника борьбы самбо Анатолия Аркадьевича Харлампиева (1906-1979).
Андрей Хромов одержим идеей создать вид борьбы — "самооборону без оружия". И с этой целью едет в Среднюю Азию, где знакомится с народной борьбой кураш. За время пребывания он не раз попадает в трудные ситуации, из которых выходит с честью.





Источник: DVD5 R5
Качество видео: DVDRip
Формат видео: AVI

Видео: 704x336 (2,095:1), 25 fps, XviD ~ 1208 kbps avg, 0.204 bit/pixel
Аудио: 48 kHz, Dolby Digital AC3 2.0, 192 kbps

Раздача от:
Общее
Полное имя : Nepobedimyy.1983.DVDRip_[New-team]_by_AVP_Studio.avi
Формат : AVI
Формат/Информация : Audio Video Interleave
Размер файла : 743 Мбайт
Продолжительность : 1 ч. 13 м.
Общий поток : 1409 Кбит/сек
Программа кодирования : VirtualDubMod 1.5.10.3 | www.virtualdub-fr.org || (build 2550/release)
Библиотека кодирования : VirtualDubMod build 2550/release

Видео
Идентификатор : 0
Формат : MPEG-4 Visual
Профиль формата : Advanced Simple@L5
Параметр BVOP формата : 1
Параметр QPel формата : Нет
Параметр GMC формата : Без точки перехода
Параметр матрицы формата : Выборочная
Идентификатор кодека : XVID
Идентификатор кодека/Подсказка : XviD
Продолжительность : 1 ч. 13 м.
Битрейт : 1208 Кбит/сек
Ширина : 704 пикселя
Высота : 336 пикселей
Соотношение сторон : 2,095
Частота кадров : 25,000 кадров/сек
Цветовое пространство : YUV
Субдискретизация насыщенности : 4:2:0
Битовая глубина : 8 бит
Тип развёртки : Прогрессивная
Метод сжатия : С потерями
Бит/(Пиксели*Кадры) : 0.204
Размер потока : 636 Мбайт (86%)
Библиотека кодирования : XviD 73

Аудио
Идентификатор : 1
Формат : AC-3
Формат/Информация : Audio Coding 3
Расширение режима : CM (complete main)
Параметр Endianness формата : Big
Идентификатор кодека : 2000
Продолжительность : 1 ч. 13 м.
Вид битрейта : Постоянный
Битрейт : 192 Кбит/сек
Каналы : 2 канала
Расположение каналов : Front: L R
Частота : 48,0 КГц
Метод сжатия : С потерями
Размер потока : 101 Мбайт (14%)
Выравнивание : Разделение по промежуткам
Продолжительность промежутка : 40 мс. (1,00 видеокадр)
Время предзагрузки промежутка : 500 мс





   Похожие торренты   Торрент   Размер 
В этой теме нет новых непрочитанных сообщений. Непобедимый (1983) DVDRip-AVC от New-Team

29 | 3

743.74 МБ

В этой теме нет новых непрочитанных сообщений. Непобедимый (1983) DVDRip-AVC

14 | 2

908.99 МБ

В этой теме нет новых непрочитанных сообщений. Непобедимый (1983) DVDRip-AVC от ExKinoRay

286 | 39

1.29 ГБ

В этой теме нет новых непрочитанных сообщений. Непобедимый (1983) DVDRip by GENADIY

93 | 9

700.34 МБ

В этой теме нет новых непрочитанных сообщений. Непобедимый (1983) DVDRip от AndrewWhite

351 | 10

1.37 ГБ

В этой теме нет новых непрочитанных сообщений. Непобедимый (1983) DVD5

77 | 14

4.15 ГБ

В этой теме нет новых непрочитанных сообщений. Непобедимый / Unbeatable / MMA / Ji zhan (2013) HDRip от BTT-TEAM

84 | 6

2.18 ГБ




Вы не можете начинать темы
Вы не можете отвечать на сообщения
Вы не можете редактировать свои сообщения
Вы не можете удалять свои сообщения
Вы не можете добавлять вложения

Перейти:  
Для Мосгорсуда, Роскомнадзора и рекламодателей: mosgorsud-torrent[собачка]yandex.ru
 Вход
ppkBB3cker v.2 © 2008-2014 @ PPK
[ Time : 0.279s | 17 Queries | GZIP : Off ]

Торрент трекер RUTOR.IN, Не можете зайти на rutor.org? Какой новый адрес рутор? Какое зеркало рутор? Не работает rutor.org и зеркала? Тогда наш торрент специально для вас. Rutor.in неофициальное зеркало rutor. В случае если у Вас заблокирован rutor или вдруг Вы не можете на него зайти, то Вы без труда сможете скачать бесплатно и без рекламы последние новинки кино, игр, сериалов и прочего у нас, на Rutor.in. Не нужно использовать прокси, чтобы зайти на рутор, достаточно воспользоваться нашим ресурсом. Все новые фильмы, игры, сериалы, книги и музыка за 2013 и 2014 годы через торрент бесплатно. Скачивайте фильмы в хорошем качестве, игры для пк, xbox, playstation без регистрации. У нас вы найдете новые Зарубежные сериалы и Русские сериалы 2013, 2014, 2015 годов. Оставайтесь с нами, качайте любимые фильмы, игры, сериалы, книги и музыку.
cron