img image001 image001 image001 image001 image001 image001 image001 image001 image001 image001 image001 image001 image001 image001 image001

Planets Sun Sun Sun
Статистика раздачи
Автор: PriZraK | Размер: 1.09 ГБ | Добавлен: 05 дек 2015
Раздают: 32    Качают: 5
Скачать торрент
Скачать торрент
Описание торрента

СообщениеДобавлено: 05 дек 2015 

Страна: СССР
Производство: Литовская киностудия

Жанр: боевик, драма, вестерн, история
Год выпуска: 1965
Продолжительность: 01:40:26

Перевод: Не требуется
Cубтитры: нет
Оригинальная аудиодорожка: русский

Режиссер: Витаутас Жалакявичюс

В ролях:
Казимирас Виткус, Донатас Банионис, Регимантас Адомайтис, Юозас Будрайтис, Альгимантас Масюлис, Бруно Оя, Вия Артмане, Дангуоле Баукайте, Эугения Шулгайте, Антанас Шурна, Бронюс Бабкаускас, Лаймонас Норейка, Витаутас Томкус...
Полный список актёров

Описание:
1947 год. В литовских лесах еще прячутся вооруженные банды из бывших полицейских, офицеров, кулацких сынков. Один за другим убиты четыре председателя сельсовета. Теперь погиб старый Локис. На похоронах четверо его сыновей клянутся не покидать деревню до тех пор, пока не уничтожат банду Домового...
Выпуск фильма - 5 сентября 1966 г.





Источник: DVD5 R5
Качество видео: DVDRip
Формат видео: AVI

Видео: 688x368 (1,85:1), 25 fps, XviD ~ 1350 kbps avg, 0.213 bit/pixel
Аудио: 48 kHz, Dolby Digital AC3 2.0, 192 kbps

Раздача от:
Общее
Полное имя : Nikto.ne.hotel.umirat.1965.DVDRip_[New-team]_by_AVP_Studio.avi
Формат : AVI
Формат/Информация : Audio Video Interleave
Размер файла : 1,09 Гбайт
Продолжительность : 1 ч. 40 м.
Общий поток : 1551 Кбит/сек
Программа кодирования : VirtualDubMod 1.5.10.3 | www.virtualdub-fr.org || (build 2550/release)
Библиотека кодирования : VirtualDubMod build 2550/release

Видео
Идентификатор : 0
Формат : MPEG-4 Visual
Профиль формата : Advanced Simple@L5
Параметр BVOP формата : 1
Параметр QPel формата : Нет
Параметр GMC формата : Без точки перехода
Параметр матрицы формата : Выборочная
Идентификатор кодека : XVID
Идентификатор кодека/Подсказка : XviD
Продолжительность : 1 ч. 40 м.
Битрейт : 1350 Кбит/сек
Ширина : 688 пикселей
Высота : 368 пикселей
Соотношение сторон : 1,85:1
Частота кадров : 25,000 кадров/сек
Цветовое пространство : YUV
Субдискретизация насыщенности : 4:2:0
Битовая глубина : 8 бит
Тип развёртки : Прогрессивная
Метод сжатия : С потерями
Бит/(Пиксели*Кадры) : 0.213
Размер потока : 970 Мбайт (87%)
Библиотека кодирования : XviD 73

Аудио
Идентификатор : 1
Формат : AC-3
Формат/Информация : Audio Coding 3
Расширение режима : CM (complete main)
Параметр Endianness формата : Big
Идентификатор кодека : 2000
Продолжительность : 1 ч. 40 м.
Вид битрейта : Постоянный
Битрейт : 192 Кбит/сек
Каналы : 2 канала
Расположение каналов : Front: L R
Частота : 48,0 КГц
Метод сжатия : С потерями
Размер потока : 138 Мбайт (12%)
Выравнивание : Разделение по промежуткам
Продолжительность промежутка : 40 мс. (1,00 видеокадр)
Время предзагрузки промежутка : 500 мс





   Похожие торренты   Торрент   Размер 
В этой теме нет новых непрочитанных сообщений. Никто не хотел умирать (1965) DVDRip-AVC от New-Team

37 | 8

1.09 ГБ

В этой теме нет новых непрочитанных сообщений. Чрезвычайное поручение (1965) DVDRip от New-Team

1 | 0

746.25 МБ

В этой теме нет новых непрочитанных сообщений. Обыкновенный фашизм (1965) DVDRip от New-Team

385 | 22

2.19 ГБ

В этой теме нет новых непрочитанных сообщений. Хочу верить (1965) DVDRip-AVC от New-Team

34 | 6

1.09 ГБ

В этой теме нет новых непрочитанных сообщений. Чрезвычайное поручение (1965) DVDRip-AVC от New-Team

8 | 0

1.46 ГБ

В этой теме нет новых непрочитанных сообщений. Чрезвычайное поручение (1965) DVDRip от New-Team

3 | 0

1.46 ГБ

В этой теме нет новых непрочитанных сообщений. Хочу верить (1965) DVDRip от New-Team

8 | 18

745.34 МБ




Вы не можете начинать темы
Вы не можете отвечать на сообщения
Вы не можете редактировать свои сообщения
Вы не можете удалять свои сообщения
Вы не можете добавлять вложения

Перейти:  
Для Мосгорсуда, Роскомнадзора и рекламодателей: mosgorsud-torrent[собачка]yandex.ru
 Вход
ppkBB3cker v.2 © 2008-2014 @ PPK
[ Time : 0.040s | 16 Queries | GZIP : Off ]

Торрент трекер RUTOR.IN, Не можете зайти на rutor.org? Какой новый адрес рутор? Какое зеркало рутор? Не работает rutor.org и зеркала? Тогда наш торрент специально для вас. Rutor.in неофициальное зеркало rutor. В случае если у Вас заблокирован rutor или вдруг Вы не можете на него зайти, то Вы без труда сможете скачать бесплатно и без рекламы последние новинки кино, игр, сериалов и прочего у нас, на Rutor.in. Не нужно использовать прокси, чтобы зайти на рутор, достаточно воспользоваться нашим ресурсом. Все новые фильмы, игры, сериалы, книги и музыка за 2013 и 2014 годы через торрент бесплатно. Скачивайте фильмы в хорошем качестве, игры для пк, xbox, playstation без регистрации. У нас вы найдете новые Зарубежные сериалы и Русские сериалы 2013, 2014, 2015 годов. Оставайтесь с нами, качайте любимые фильмы, игры, сериалы, книги и музыку.
cron