img image001 image001 image001 image001 image001 image001 image001 image001 image001 image001 image001 image001 image001 image001 image001

Planets Sun Sun Sun
Статистика раздачи
Автор: PriZraK | Размер: 746.63 МБ | Добавлен: 05 дек 2015
Раздают: 18    Качают: 8
Скачать торрент
Скачать торрент
Описание торрента

СообщениеДобавлено: 05 дек 2015 


Информация о фильме
Название: Возвращение
Год выхода: 2003
Жанр: Триллер, драма, детектив
Режиссер: Андрей Звягинцев
В ролях: Константин Лавроненко, Владимир Гарин, Иван Добронравов, Наталия Вдовина, Елизавета Александрова, Лазарь Дубовик, Любовь Казакова, Галина Попова, Алексей Сукновалов, Андрей Сумин

О фильме:
В жизни двух братьев неожиданно возникает отец, знакомый им только по фотографии десятилетней давности. Появление странного, чужого для них человека переворачивает их жизнь, когда отец вырывает ребят из привычного существования в тихом родном городе и привозит на заброшенный остров…


Страна: Россия
Студия: Ren Film
Продолжительность: 01:49:52
Перевод: Не требуется

Файл
Кодек: XviD
Качество: HDRip
Видео: 592x320 (1.85:1), 23.976 fps, XviD build 73 ~812 kbps avg, 0.18 bit/pixel
Звук: 48 kHz, MPEG Layer 3, 2 ch, ~128.00 kbps avg
Субтитры: Отсутствует
Семпл
General
Complete name : E:Изготовление риповVozvrashchenie.2003.HDRip.shkiper.avi
Format : AVI
Format/Info : Audio Video Interleave
File size : 747 MiB
Duration : 1h 49mn
Overall bit rate : 950 Kbps
Writing application : VirtualDubMod 1.5.10.3 | www.virtualdub-fr.org || (build 2550/release)
Writing library : VirtualDubMod build 2550/release

Video
ID : 0
Format : MPEG-4 Visual
Format profile : Advanced Simple@L5
Format settings, BVOP : 1
Format settings, QPel : No
Format settings, GMC : No warppoints
Format settings, Matrix : Custom
Codec ID : XVID
Codec ID/Hint : XviD
Duration : 1h 49mn
Bit rate : 813 Kbps
Width : 592 pixels
Height : 320 pixels
Display aspect ratio : 1.85:1
Frame rate : 23.976 fps
Color space : YUV
Chroma subsampling : 4:2:0
Bit depth : 8 bits
Scan type : Progressive
Compression mode : Lossy
Bits/(Pixel*Frame) : 0.179
Stream size : 639 MiB (86%)
Writing library : XviD 73

Audio
ID : 1
Format : MPEG Audio
Format version : Version 1
Format profile : Layer 3
Mode : Joint stereo
Mode extension : MS Stereo
Codec ID : 55
Codec ID/Hint : MP3
Duration : 1h 49mn
Bit rate mode : Constant
Bit rate : 128 Kbps
Channel(s) : 2 channels
Sampling rate : 48.0 KHz
Compression mode : Lossy
Stream size : 101 MiB (13%)
Alignment : Aligned on interleaves
Interleave, duration : 42 ms (1.00 video frame)
Interleave, preload duratio : 504 ms
Writing library : LAME3.99r
Encoding settings : -m j -V 4 -q 2 -lowpass 17 -b 128

Релиз от:



   Похожие торренты   Торрент   Размер 
В этой теме нет новых непрочитанных сообщений. Возвращение (2003) HDRip от Scarabey | Restored version

83 | 7

1.45 ГБ

В этой теме нет новых непрочитанных сообщений. Возвращение (2003) HDRip от MegaPeer | Restored version

13 | 2

1.45 ГБ

В этой теме нет новых непрочитанных сообщений. Возвращение (2003) HDRip от Scarabey | Restored version

153 | 10

745.94 МБ

В этой теме нет новых непрочитанных сообщений. Властелин колец: Возвращение Короля / The Lord of the Rings: The Return of the King (2003) HDRip | Театральная версия

35 | 7

1.46 ГБ

В этой теме нет новых непрочитанных сообщений. Властелин колец: Возвращение Короля / The Lord of the Rings: The Return of the King (2003) HDRip от Scarabey | Расширенная версия

873 | 66

2.9 ГБ

В этой теме нет новых непрочитанных сообщений. Властелин колец: Возвращение Короля / The Lord of the Rings: The Return of the King (2003) HDRip от Scarabey | Театральная версия

90 | 7

2.17 ГБ

В этой теме нет новых непрочитанных сообщений. Властелин колец: Возвращение Короля / The Lord of the Rings: The Return of the King (2003) HDRip-AVC от New-Team | Расширенная версия

2663 | 145

1.46 ГБ




Вы не можете начинать темы
Вы не можете отвечать на сообщения
Вы не можете редактировать свои сообщения
Вы не можете удалять свои сообщения
Вы не можете добавлять вложения

Перейти:  
Для Мосгорсуда, Роскомнадзора и рекламодателей: mosgorsud-torrent[собачка]yandex.ru
 Вход
ppkBB3cker v.2 © 2008-2014 @ PPK
[ Time : 0.036s | 15 Queries | GZIP : Off ]

Торрент трекер RUTOR.IN, Не можете зайти на rutor.org? Какой новый адрес рутор? Какое зеркало рутор? Не работает rutor.org и зеркала? Тогда наш торрент специально для вас. Rutor.in неофициальное зеркало rutor. В случае если у Вас заблокирован rutor или вдруг Вы не можете на него зайти, то Вы без труда сможете скачать бесплатно и без рекламы последние новинки кино, игр, сериалов и прочего у нас, на Rutor.in. Не нужно использовать прокси, чтобы зайти на рутор, достаточно воспользоваться нашим ресурсом. Все новые фильмы, игры, сериалы, книги и музыка за 2013 и 2014 годы через торрент бесплатно. Скачивайте фильмы в хорошем качестве, игры для пк, xbox, playstation без регистрации. У нас вы найдете новые Зарубежные сериалы и Русские сериалы 2013, 2014, 2015 годов. Оставайтесь с нами, качайте любимые фильмы, игры, сериалы, книги и музыку.
cron