img image001 image001 image001 image001 image001 image001 image001 image001 image001 image001 image001 image001 image001 image001 image001

Planets Sun Sun Sun
Статистика раздачи
Автор: PriZraK | Размер: 2.63 ГБ | Добавлен: 06 дек 2015
Раздают: 164    Качают: 24
Скачать торрент
Скачать торрент
Описание торрента

СообщениеДобавлено: 06 дек 2015 



Информация о фильме
Название: Небеса обетованные
Год выхода: 1991
Жанр: Комедия, драма
Режиссер: Эльдар Рязанов
В ролях: Лия Ахеджакова, Ольга Волкова, Валентин Гафт, Леонид Броневой, Олег Басилашвили, Светлана Немоляева, Наталья Гундарева, Михаил Филиппов, Сергей Арцибашев, Вячеслав Невинный, Александр Пашутин, Наталья Щукина, Нина Русланова, Джон Кохан, Александр Панкратов-Чёрный, Александр Белявский, Сергей Данилевич, Мария Виноградова, Татьяна Гаврилова, Валерий Носик, Станислав Садальский, Фёдор Дунаевский, Игорь Ветров, Людмила Иванова, Татьяна Кравченко, Зинаида Кулакова, Юрий Митрофанов, Роман Карцев

О фильме:
Трагикомическая история о бездомных людях, живущих на городской свалке, об их судьбах, радостях и горестях. Они борются за место под солнцем с городскими властями, отстаивая свое право жить на земле не страшась даже танков, посланных чиновниками...
Страна: СССР, Мосфильм
Продолжительность: 01:57:34
Перевод: не требуется

Файл
Кодек: x264
Качество: DVDRip-AVC
Видео: MPEG-4 AVC, 2750 Кбит/с, 716x572@763x572
Звук: AC3, 6 ch, 448 Кбит/с

raw [info]: 716x572p 16:15 @ 25/1 fps (cfr)
x264 [info]: using SAR=16/15
x264 [info]: using cpu capabilities: MMX2 SSE2Fast SSSE3 SSE4.2 AVX
x264 [info]: profile High, level 4.1
x264 [info]: frame I:939 Avg QP:15.95 size: 81386
x264 [info]: frame P:41415 Avg QP:19.35 size: 30525
x264 [info]: frame B:134020 Avg QP:21.73 size: 8090
===========================================================================================================
Общее
Уникальный идентификатор : 228689364291709885192814286055764718080 (0xAC0BF82EDF8B13A6B1CCFD3A4288F200)
Полное имя : D:Небеса обетованные_1991-DVDRip-AVC.mkv
Формат : Matroska
Версия формата : Version 2
Размер файла : 2,63 Гбайт
Продолжительность : 1 ч. 57 м.
Общий поток : 3199 Кбит/сек
Программа кодирования : mkvmerge v5.8.0
Видео
Идентификатор : 1
Формат : AVC
Формат/Информация : Advanced Video Codec
Профиль формата : High@L4.1
Параметр CABAC формата : Да
Параметр ReFrames формата : 13 кадров
Идентификатор кодека : V_MPEG4/ISO/AVC
Продолжительность : 1 ч. 57 м.
Битрейт : 2750 Кбит/сек
Ширина : 716 пикселей
Высота : 572 пикселя
Соотношение сторон : 4:3
Соотношение сторон в оригинале : 4:3
Режим частоты кадров : Постоянный
Частота кадров : 25,000 кадров/сек
Цветовое пространство : YUV
Субдискретизация насыщенности : 4:2:0
Битовая глубина : 8 бит
Тип развёртки : Прогрессивная
Бит/(Пиксели*Кадры) : 0.269
Размер потока : 2,21 Гбайт (84%)
Библиотека кодирования : x264 core 146 r2538 121396c
Настройки программы : cabac=1 / ref=13 / deblock=1:-2:-2 / analyse=0x3:0x133 / me=umh / subme=10 / psy=1 / psy_rd=1.05:0.17 / mixed_ref=1 / me_range=32 / chroma_me=1 / trellis=2 / 8x8dct=1 / cqm=0 / deadzone=21,11 / fast_pskip=0 / chroma_qp_offset=-3 / threads=12 / lookahead_threads=2 / sliced_threads=0 / nr=0 / decimate=0 / interlaced=0 / bluray_compat=0 / constrained_intra=0 / bframes=9 / b_pyramid=2 / b_adapt=2 / b_bias=0 / direct=3 / weightb=1 / open_gop=0 / weightp=2 / keyint=250 / keyint_min=25 / scenecut=40 / intra_refresh=0 / rc=2pass / mbtree=0 / bitrate=2750 / ratetol=1.0 / qcomp=0.63 / qpmin=0 / qpmax=39 / qpstep=4 / cplxblur=20.0 / qblur=0.5 / ip_ratio=1.40 / pb_ratio=1.30 / aq=1:1.00
Язык : English
Default : Да
Forced : Нет
Цветовой диапазон : Limited
Основные цвета : BT.601 PAL
Характеристики трансфера : BT.470 System B, BT.470 System G
Коэффициенты матрицы : BT.601

Аудио
Идентификатор : 2
Формат : AC-3
Формат/Информация : Audio Coding 3
Расширение режима : CM (complete main)
Параметр Endianness формата : Big
Идентификатор кодека : A_AC3
Продолжительность : 1 ч. 57 м.
Вид битрейта : Постоянный
Битрейт : 448 Кбит/сек
Каналы : 6 каналов
Расположение каналов : Front: L C R, Side: L R, LFE
Частота : 48,0 КГц
Метод сжатия : С потерями
Размер потока : 377 Мбайт (14%)
Язык : Russian
Default : Да
Forced : Нет

Меню
00:00:00.000 : ru:1. Вступление
00:08:53.680 : ru:2. Американцы
00:19:00.400 : ru:3. Фима
00:29:04.680 : ru:4. Милосердие
00:38:24.000 : ru:5. В милиции
00:48:54.000 : ru:6. Свадьба
01:06:39.160 : ru:7. Разоблачение
01:09:50.720 : ru:8. Дом пансионат
01:19:58.800 : ru:9. Подруга
01:28:08.360 : ru:10. Генерал
01:39:46.400 : ru:11. Снег
01:56:00.000 : ru:12. Заключение

Релиз от:
Автор релиза:



   Похожие торренты   Торрент   Размер 
В этой теме нет новых непрочитанных сообщений. Небеса обетованные (1991) DVDRip от ExKinoRay

66 | 10

1.36 ГБ

В этой теме нет новых непрочитанных сообщений. Небеса обетованные (1991) DVDRip-AVC

86 | 12

2.26 ГБ

В этой теме нет новых непрочитанных сообщений. Небеса обетованные (1991) DVDRip

9 | 4

1.37 ГБ

В этой теме нет новых непрочитанных сообщений. Небеса обетованные (1991) DVDRip-AVC от New-Team

79 | 15

2.19 ГБ

В этой теме нет новых непрочитанных сообщений. Небеса обетованные (1991) DVDRip от New-Team

118 | 12

1.46 ГБ

В этой теме нет новых непрочитанных сообщений. Небеса обетованные (1991) DVDRip от New-Team

17 | 2

2.19 ГБ

В этой теме нет новых непрочитанных сообщений. Холодные небеса / Cold Heaven (1991) HDTVRip | A

126 | 15

1.46 ГБ




Вы не можете начинать темы
Вы не можете отвечать на сообщения
Вы не можете редактировать свои сообщения
Вы не можете удалять свои сообщения
Вы не можете добавлять вложения

Перейти:  
Для Мосгорсуда, Роскомнадзора и рекламодателей: mosgorsud-torrent[собачка]yandex.ru
 Вход
ppkBB3cker v.2 © 2008-2014 @ PPK
[ Time : 0.057s | 16 Queries | GZIP : Off ]

Торрент трекер RUTOR.IN, Не можете зайти на rutor.org? Какой новый адрес рутор? Какое зеркало рутор? Не работает rutor.org и зеркала? Тогда наш торрент специально для вас. Rutor.in неофициальное зеркало rutor. В случае если у Вас заблокирован rutor или вдруг Вы не можете на него зайти, то Вы без труда сможете скачать бесплатно и без рекламы последние новинки кино, игр, сериалов и прочего у нас, на Rutor.in. Не нужно использовать прокси, чтобы зайти на рутор, достаточно воспользоваться нашим ресурсом. Все новые фильмы, игры, сериалы, книги и музыка за 2013 и 2014 годы через торрент бесплатно. Скачивайте фильмы в хорошем качестве, игры для пк, xbox, playstation без регистрации. У нас вы найдете новые Зарубежные сериалы и Русские сериалы 2013, 2014, 2015 годов. Оставайтесь с нами, качайте любимые фильмы, игры, сериалы, книги и музыку.
cron