img image001 image001 image001 image001 image001 image001 image001 image001 image001 image001 image001 image001 image001 image001 image001

Planets Sun Sun Sun
Статистика раздачи
Автор: PriZraK | Размер: 4.08 ГБ | Добавлен: 06 дек 2015
Раздают: 1310    Качают: 87
Скачать торрент
Скачать торрент
Описание торрента

СообщениеДобавлено: 06 дек 2015 



Информация о фильме
Название: Ирония судьбы, или С легким паром!
Год выхода: 1975
Жанр: Мелодрама, комедия
Режиссер: Эльдар Рязанов
В ролях: Андрей Мягков, Барбара Брыльска, Юрий Яковлев, Ольга Науменко, Любовь Добржанская, Георгий Бурков, Александр Ширвиндт, Александр Белявский, Лия Ахеджакова, Валентина Талызина, Любовь Соколова, Готлиб Ронинсон, Эльдар Рязанов, Николай Погодин, Александр Постников, Александр Беляев, Елена Наумкина

О фильме:
Под Новый год приятели отправились в баню. Вымылись, выпили... Один из них должен был лететь после этого в Ленинград, но кто именно, они не помнили. В самолет запихнули в бессознательном состоянии Женю Лукашина, которого дожидалась невеста в московской квартире. Прилетев в Ленинград, Женя назвал таксисту свой адрес, вошел в дом, открыл дверь своим ключом и лег отсыпаться. В это время домой вернулась молодая хозяйка ленинградской квартиры, намереваясь встретить праздник вместе со своим женихом...
Страна: СССР, Мосфильм
Продолжительность: 03:04:12
Перевод: не требуется

Файл
Кодек: x264
Качество: DVDRip-AVC
Видео: MPEG-4 AVC, 2500 Кбит/с, 716x572@763х572
Звук: AC3, 6 ch, 448 Кбит/с, AC3, 1 ch, 224 Кбит/с
Субтитры: Русские


raw [info]: 716x572p 16:15 @ 25/1 fps (cfr)
x264 [info]: using SAR=16/15
x264 [info]: using cpu capabilities: MMX2 SSE2Fast SSSE3 SSE4.2 AVX
x264 [info]: profile High, level 4.1
x264 [info]: frame I:1551 Avg QP:16.12 size: 75136
x264 [info]: frame P:69320 Avg QP:19.59 size: 28523
x264 [info]: frame B:205433 Avg QP:21.95 size: 6623
=========================================================================================================
Общее
Уникальный идентификатор : 184846885708556232505664616590615058752 (0x8B10371965BB0A9C899E7AE214B51940)
Полное имя : D:Ирония судьбы, или С легким паром_1975-DVDRip-AVC.mkv
Формат : Matroska
Версия формата : Version 2
Размер файла : 4,08 Гбайт
Продолжительность : 3 ч. 4 м.
Общий поток : 3174 Кбит/сек
Дата кодирования : UTC 2015-12-02 03:15:39
Программа кодирования : mkvmerge v5.8.0 ('No Sleep / Pillow') built on Sep 2 2012 15:37:04
Библиотека кодирования : libebml v1.2.3 + libmatroska v1.3.0

Видео
Идентификатор : 1
Формат : AVC
Формат/Информация : Advanced Video Codec
Профиль формата : High@L4.1
Параметр CABAC формата : Да
Параметр ReFrames формата : 14 кадров
Идентификатор кодека : V_MPEG4/ISO/AVC
Продолжительность : 3 ч. 4 м.
Битрейт : 2500 Кбит/сек
Ширина : 716 пикселей
Высота : 572 пикселя
Соотношение сторон : 4:3
Соотношение сторон в оригинале : 4:3
Режим частоты кадров : Постоянный
Частота кадров : 25,000 кадров/сек
Цветовое пространство : YUV
Субдискретизация насыщенности : 4:2:0
Битовая глубина : 8 бит
Тип развёртки : Прогрессивная
Бит/(Пиксели*Кадры) : 0.244
Размер потока : 3,14 Гбайт (77%)
Библиотека кодирования : x264 core 146 r2538 121396c
Настройки программы : cabac=1 / ref=14 / deblock=1:-2:-2 / analyse=0x3:0x133 / me=umh / subme=10 / psy=1 / psy_rd=1.05:0.08 / mixed_ref=1 / me_range=32 / chroma_me=1 / trellis=2 / 8x8dct=1 / cqm=0 / deadzone=21,11 / fast_pskip=0 / chroma_qp_offset=-3 / threads=12 / lookahead_threads=2 / sliced_threads=0 / nr=0 / decimate=0 / interlaced=0 / bluray_compat=0 / constrained_intra=0 / bframes=8 / b_pyramid=2 / b_adapt=2 / b_bias=0 / direct=3 / weightb=1 / open_gop=0 / weightp=2 / keyint=250 / keyint_min=25 / scenecut=40 / intra_refresh=0 / rc=2pass / mbtree=0 / bitrate=2500 / ratetol=1.0 / qcomp=0.63 / qpmin=0 / qpmax=39 / qpstep=4 / cplxblur=20.0 / qblur=0.5 / ip_ratio=1.40 / pb_ratio=1.30 / aq=1:1.00
Язык : English
Default : Да
Forced : Нет
Цветовой диапазон : Limited
Основные цвета : BT.601 PAL
Характеристики трансфера : BT.470 System B, BT.470 System G
Коэффициенты матрицы : BT.601

Аудио #1
Идентификатор : 2
Формат : AC-3
Формат/Информация : Audio Coding 3
Расширение режима : CM (complete main)
Параметр Endianness формата : Big
Идентификатор кодека : A_AC3
Продолжительность : 3 ч. 4 м.
Вид битрейта : Постоянный
Битрейт : 448 Кбит/сек
Каналы : 6 каналов
Расположение каналов : Front: L C R, Side: L R, LFE
Частота : 48,0 КГц
Метод сжатия : С потерями
Задержка видео : 80 мс.
Размер потока : 590 Мбайт (14%)
Язык : Russian
Default : Да
Forced : Нет

Аудио #2
Идентификатор : 3
Формат : AC-3
Формат/Информация : Audio Coding 3
Расширение режима : CM (complete main)
Параметр Endianness формата : Big
Идентификатор кодека : A_AC3
Продолжительность : 3 ч. 4 м.
Вид битрейта : Постоянный
Битрейт : 224 Кбит/сек
Каналы : 1 канал
Расположение каналов : Front: C
Частота : 48,0 КГц
Метод сжатия : С потерями
Задержка видео : 80 мс.
Размер потока : 295 Мбайт (7%)
Язык : Russian
Default : Нет
Forced : Нет

Текст
Идентификатор : 4
Формат : UTF-8
Идентификатор кодека : S_TEXT/UTF8
Идентификатор кодека/Информация : UTF-8 Plain Text
Язык : Russian
Default : Нет
Forced : Нет

Релиз от:
Автор релиза:



   Похожие торренты   Торрент   Размер 
В этой теме нет новых непрочитанных сообщений. Ирония судьбы, или С легким паром! (1975) DVDRip от ExKinoRay

1491 | 87

2.78 ГБ

В этой теме нет новых непрочитанных сообщений. Ирония судьбы, или С легким паром! (1975) DVDRip | КПК

75 | 11

837.67 МБ

В этой теме нет новых непрочитанных сообщений. Ирония судьбы, или С лёгким паром! (1975) DVDRip-AVC

80 | 6

2.18 ГБ

В этой теме нет новых непрочитанных сообщений. Ирония судьбы, или С легким паром! (1975) DVDRip

134 | 13

1.45 ГБ

В этой теме нет новых непрочитанных сообщений. Ирония судьбы, или с легким паром (1975) DVDRip

164 | 22

2.73 ГБ

В этой теме нет новых непрочитанных сообщений. Ирония судьбы, или С легким паром! (1975) DVDRip от Youtracker

41 | 11

2.91 ГБ

В этой теме нет новых непрочитанных сообщений. Ирония судьбы, или С легким паром! (1975) DVDRip-AVC от Youtracker

284 | 27

2.91 ГБ




Вы не можете начинать темы
Вы не можете отвечать на сообщения
Вы не можете редактировать свои сообщения
Вы не можете удалять свои сообщения
Вы не можете добавлять вложения

Перейти:  
Для Мосгорсуда, Роскомнадзора и рекламодателей: mosgorsud-torrent[собачка]yandex.ru
 Вход
ppkBB3cker v.2 © 2008-2014 @ PPK
[ Time : 0.037s | 14 Queries | GZIP : Off ]

Торрент трекер RUTOR.IN, Не можете зайти на rutor.org? Какой новый адрес рутор? Какое зеркало рутор? Не работает rutor.org и зеркала? Тогда наш торрент специально для вас. Rutor.in неофициальное зеркало rutor. В случае если у Вас заблокирован rutor или вдруг Вы не можете на него зайти, то Вы без труда сможете скачать бесплатно и без рекламы последние новинки кино, игр, сериалов и прочего у нас, на Rutor.in. Не нужно использовать прокси, чтобы зайти на рутор, достаточно воспользоваться нашим ресурсом. Все новые фильмы, игры, сериалы, книги и музыка за 2013 и 2014 годы через торрент бесплатно. Скачивайте фильмы в хорошем качестве, игры для пк, xbox, playstation без регистрации. У нас вы найдете новые Зарубежные сериалы и Русские сериалы 2013, 2014, 2015 годов. Оставайтесь с нами, качайте любимые фильмы, игры, сериалы, книги и музыку.