img image001 image001 image001 image001 image001 image001 image001 image001 image001 image001 image001 image001 image001 image001 image001

Planets Sun Sun Sun
Статистика раздачи
Автор: PriZraK | Размер: 1.92 ГБ | Добавлен: 06 дек 2015
Раздают: 497    Качают: 103
Скачать торрент
Скачать торрент
Описание торрента

СообщениеДобавлено: 06 дек 2015 



Информация о фильме

Оригинальное название: Дедушка моей мечты
Год выпуска: 2014
Жанр: Комедия, семейный
Выпущено: Россия, Кинокомпания "Пендулум"
Режиссер: Александр Стриженов
В ролях: Николай Добрынин, Екатерина Стриженова, Леонид Якубович, Анна Ардова, Виктор Супрун, Виталий Хаев, Иван Кокорин, Александр Добровинский, Александр Пряников, Грант Палагаев
О фильме: Гротесковая семейная комедия, поднимающая извечный вопрос о том, насколько мы зависим от материального благополучия, которое внезапно обрушивается на нашу голову.

Файл

Качество: WEB-DLRip (AVC)
Видео: MPEG-4 AVC, 2312 Кбит/с, 1024x428, 24 кадр/с
Аудио: AC3, 6 ch, 384 Кбит/с
Размер: 1.92 ГБ
Продолжительность: 01:43:53
Язык: Русский

Озвучивание - (iTunes Russia)
Сохранены оригинальные чаптеры как на исходном WEB-DL.
x264 [info]: frame I:1276 Avg QP:15.39 size: 74662
x264 [info]: frame P:40427 Avg QP:17.86 size: 23306
x264 [info]: frame B:105027 Avg QP:20.34 size: 6944
x264 [info]: consecutive B-frames: 2.9% 7.2% 7.5% 66.6% 6.0% 8.0% 0.7% 0.6% 0.2% 0.4%
x264 [info]: mb I I16..4: 6.9% 62.6% 30.4%
x264 [info]: mb P I16..4: 0.8% 11.0% 2.1% P16..4: 29.2% 33.4% 12.1% 4.8% 0.5% skip: 6.2%
x264 [info]: mb B I16..4: 0.1% 1.4% 0.3% B16..8: 29.2% 21.5% 4.5% direct: 6.0% skip:37.1% L0:35.1% L1:44.6% BI:20.3%
x264 [info]: 8x8 transform intra:76.6% inter:46.2%
x264 [info]: direct mvs spatial:98.6% temporal:1.4%
x264 [info]: coded y,uvDC,uvAC intra: 91.3% 91.4% 78.0% inter: 23.9% 22.3% 13.4%
x264 [info]: i16 v,h,dc,p: 35% 11% 7% 47%
x264 [info]: i8 v,h,dc,ddl,ddr,vr,hd,vl,hu: 13% 9% 8% 8% 11% 13% 11% 13% 14%
x264 [info]: i4 v,h,dc,ddl,ddr,vr,hd,vl,hu: 16% 8% 7% 8% 13% 14% 12% 11% 11%
x264 [info]: i8c dc,h,v,p: 43% 20% 20% 17%
x264 [info]: Weighted P-Frames: Y:5.4% UV:3.1%
x264 [info]: ref P L0: 59.1% 10.0% 13.2% 5.6% 4.0% 2.8% 2.1% 1.3% 1.0% 0.8% 0.1% 0.0%
x264 [info]: ref B L0: 83.4% 9.4% 3.3% 1.5% 0.9% 0.7% 0.5% 0.2% 0.1%
x264 [info]: ref B L1: 96.2% 3.8%
x264 [info]: kb/s:2311.82


Общее
Уникальный идентификатор : 240024970404755773400948484555596195068 (0xB49320B6DDC4383ABE44C352CBA164FC)
Полное имя : D:ЗагрузкиDedushka.Moej.Mechti.2015.x264.WEB-DLRip.(AVC).ExKinoRay.mkv
Формат : Matroska
Версия формата : Version 2
Размер файла : 1,92 Гбайт
Продолжительность : 1 ч. 41 м.
Общий поток : 2698 Кбит/сек
Название фильма : Дедушка моей мечты.2015.Rip by: ollan
Дата кодирования : UTC 2015-12-05 07:20:07
Программа кодирования : mkvmerge v5.6.0 ('Kenya Kane') built on May 27 2012 16:44:04
Библиотека кодирования : libebml v1.2.3 + libmatroska v1.3.0

Видео
Идентификатор : 1
Формат : AVC
Формат/Информация : Advanced Video Codec
Профиль формата : High@L4.1
Параметр CABAC формата : Да
Параметр ReFrames формата : 10 кадров
Идентификатор кодека : V_MPEG4/ISO/AVC
Продолжительность : 1 ч. 41 м.
Битрейт : 2312 Кбит/сек
Ширина : 1024 пикселя
Высота : 428 пикселей
Соотношение сторон : 2,40:1
Режим частоты кадров : Постоянный
Частота кадров : 24,000 кадра/сек
Цветовое пространство : YUV
Субдискретизация насыщенности : 4:2:0
Битовая глубина : 8 бит
Тип развёртки : Прогрессивная
Бит/(Пиксели*Кадры) : 0.220
Размер потока : 1,61 Гбайт (84%)
Библиотека кодирования : x264 core 125 r2200 999b753
Настройки программы : cabac=1 / ref=10 / deblock=1:-3:-3 / analyse=0x3:0x133 / me=umh / subme=11 / psy=1 / psy_rd=1.00:0.05 / mixed_ref=1 / me_range=32 / chroma_me=1 / trellis=2 / 8x8dct=1 / cqm=0 / deadzone=21,11 / fast_pskip=0 / chroma_qp_offset=-3 / threads=12 / lookahead_threads=2 / sliced_threads=0 / nr=0 / decimate=0 / interlaced=0 / bluray_compat=0 / constrained_intra=0 / bframes=9 / b_pyramid=2 / b_adapt=2 / b_bias=0 / direct=3 / weightb=1 / open_gop=0 / weightp=2 / keyint=240 / keyint_min=23 / scenecut=40 / intra_refresh=0 / rc=2pass / mbtree=0 / bitrate=2312 / ratetol=1.0 / qcomp=0.60 / qpmin=0 / qpmax=69 / qpstep=4 / cplxblur=20.0 / qblur=0.5 / ip_ratio=1.40 / pb_ratio=1.30 / aq=1:1.00
Язык : Russian
Default : Да
Forced : Нет

Аудио
Идентификатор : 2
Формат : AC-3
Формат/Информация : Audio Coding 3
Расширение режима : CM (complete main)
Параметр Endianness формата : Big
Идентификатор кодека : A_AC3
Продолжительность : 1 ч. 41 м.
Вид битрейта : Постоянный
Битрейт : 384 Кбит/сек
Каналы : 6 каналов
Расположение каналов : Front: L C R, Side: L R, LFE
Частота : 48,0 КГц
Битовая глубина : 16 бит
Метод сжатия : С потерями
Размер потока : 280 Мбайт (14%)
Заголовок : iTunes Russia
Язык : Russian
Default : Да
Forced : Нет

Меню
00:00:00.000 : ru:Chapter 01
00:05:40.000 : ru:Chapter 02
00:12:20.000 : ru:Chapter 03
00:17:42.000 : ru:Chapter 04
00:22:35.000 : ru:Chapter 05
00:27:24.000 : ru:Chapter 06
00:32:04.000 : ru:Chapter 07
00:36:19.000 : ru:Chapter 08
00:41:14.000 : ru:Chapter 09
00:46:05.000 : ru:Chapter 10
00:52:30.000 : ru:Chapter 11
00:59:11.000 : ru:Chapter 12
01:04:37.000 : ru:Chapter 13
01:09:11.000 : ru:Chapter 14
01:13:43.000 : ru:Chapter 15
01:19:06.000 : ru:Chapter 16
01:25:10.000 : ru:Chapter 17
01:30:34.000 : ru:Chapter 18
01:36:32.000 : ru:Chapter 19








Релиз от: Rip by:



   Похожие торренты   Торрент   Размер 
В этой теме нет новых непрочитанных сообщений. Дедушка моей мечты (2015) WEB-DLRip | iTunes

6521 | 317

1.46 ГБ

В этой теме нет новых непрочитанных сообщений. Дедушка моей мечты (2015) WEB-DLRip от GeneralFilm | КПК | iTunes

638 | 24

423.25 МБ

В этой теме нет новых непрочитанных сообщений. Дедушка моей мечты (2015) WEB-DLRip от MegaPeer | iTunes

1046 | 107

747.52 МБ

В этой теме нет новых непрочитанных сообщений. Дедушка моей мечты (2015) WEB-DL 720p | iTunes

1816 | 120

3.06 ГБ

В этой теме нет новых непрочитанных сообщений. Дедушка моей мечты (2015) WEB-DL 1080p | iTunes

871 | 73

3.41 ГБ

В этой теме нет новых непрочитанных сообщений. Дедушка моей мечты (2015) WEB-DLRip-AVC

4209 | 215

1.46 ГБ

В этой теме нет новых непрочитанных сообщений. Берега моей мечты / Однокашники [01-12 из 12] (2013) WEB-DLRip-AVC от ExKinoRay

50 | 41

7.64 ГБ




Вы не можете начинать темы
Вы не можете отвечать на сообщения
Вы не можете редактировать свои сообщения
Вы не можете удалять свои сообщения
Вы не можете добавлять вложения

Перейти:  
Для Мосгорсуда, Роскомнадзора и рекламодателей: mosgorsud-torrent[собачка]yandex.ru
 Вход
ppkBB3cker v.2 © 2008-2014 @ PPK
[ Time : 0.379s | 16 Queries | GZIP : On ]

Торрент трекер RUTOR.IN, Не можете зайти на rutor.org? Какой новый адрес рутор? Какое зеркало рутор? Не работает rutor.org и зеркала? Тогда наш торрент специально для вас. Rutor.in неофициальное зеркало rutor. В случае если у Вас заблокирован rutor или вдруг Вы не можете на него зайти, то Вы без труда сможете скачать бесплатно и без рекламы последние новинки кино, игр, сериалов и прочего у нас, на Rutor.in. Не нужно использовать прокси, чтобы зайти на рутор, достаточно воспользоваться нашим ресурсом. Все новые фильмы, игры, сериалы, книги и музыка за 2013 и 2014 годы через торрент бесплатно. Скачивайте фильмы в хорошем качестве, игры для пк, xbox, playstation без регистрации. У нас вы найдете новые Зарубежные сериалы и Русские сериалы 2013, 2014, 2015 годов. Оставайтесь с нами, качайте любимые фильмы, игры, сериалы, книги и музыку.