img image001 image001 image001 image001 image001 image001 image001 image001 image001 image001 image001 image001 image001 image001 image001

Planets Sun Sun Sun
Статистика раздачи
Автор: PriZraK | Размер: 745.15 МБ | Добавлен: 05 дек 2015
Раздают: 165    Качают: 26
Скачать торрент
Скачать торрент
Описание торрента

СообщениеДобавлено: 05 дек 2015 



Информация о фильме
Название: Белорусский вокзал
Год выхода: 1971
Жанр: Драма
Режиссёр: Андрей Смирнов
В ролях: Евгений Леонов, Анатолий Папанов, Алексей Глазырин, Всеволод Сафонов, Нина Ургант, Николай Волков мл., Любовь Соколова, Маргарита Терехова, Раиса Куркина, Юрий Визбор, Виктор Проскурин, Людмила Аринина, Владимир Грамматиков, Валентина Ананьина, Светлана Данильченко, Николай Граббе, Никифор Колофидин, Валерий Малышев, Юрий Орлов, Юрий Волынцев, Александр Январёв, Юрий Орлов

О фильме: Герои фильма расстались на Белорусском вокзале летом 1945-го. Спустя четверть века они встречаются на похоронах боевого товарища. В их душах с новой силой оживает пережитое. Время не властно над их памятью: ветераны сохранили верность фронтовой дружбе, способность жертвовать собой, неистребимую любовь к жизни...



Страна: СССР
Студия: Мосфильм
Продолжительность: 01:39:23
Перевод: Не требуется (оригинальный)

Файл
Формат: avi
Качество: BDRip (Blu-ray)
Видео: XviD, 640х272, 23.976fps, 911kbps
Аудио: MPEG Layer 3, 2ch, 48000Hz, 128kbps



General
Complete name : Belorusskii.Vokzal.1971.O.BDRip.700.CurHaJI.avi
Format : AVI
Format/Info : Audio Video Interleave
File size : 745 MiB
Duration : 1h 39mn
Overall bit rate : 1 048 Kbps
Movie name : Belorusskii.Vokzal.1971.O.BDRip.700.CurHaJI
Writing application : Lavf53.13.0
Writing library : VirtualDub build 35491/release

Video
ID : 0
Format : MPEG-4 Visual
Format profile : Advanced Simple@L5
Format settings, BVOP : 2
Format settings, QPel : No
Format settings, GMC : No warppoints
Format settings, Matrix : Custom
Codec ID : XVID
Codec ID/Hint : XviD
Duration : 1h 39mn
Bit rate : 911 Kbps
Width : 640 pixels
Height : 272 pixels
Display aspect ratio : 2.35:1
Frame rate : 23.976 fps
Color space : YUV
Chroma subsampling : 4:2:0
Bit depth : 8 bits
Scan type : Progressive
Compression mode : Lossy
Bits/(Pixel*Frame) : 0.218
Stream size : 647 MiB (87%)
Writing library : XviD 64

Audio
ID : 1
Format : MPEG Audio
Format version : Version 1
Format profile : Layer 3
Codec ID : 55
Codec ID/Hint : MP3
Duration : 1h 39mn
Bit rate mode : Constant
Bit rate : 128 Kbps
Channel(s) : 2 channels
Sampling rate : 48.0 KHz
Compression mode : Lossy
Stream size : 91.0 MiB (12%)
Alignment : Split accross interleaves
Interleave, duration : 42 ms (1.00 video frame)
Interleave, preload duration : 500 ms
Writing library : L3.99r
Encoding settings : -m s -V 4 -q 2 -lowpass 17 -b 128



Релиз от:



   Похожие торренты   Торрент   Размер 
В этой теме нет новых непрочитанных сообщений. Белорусский вокзал (1971) BDRip-AVC

277 | 22

1.77 ГБ

В этой теме нет новых непрочитанных сообщений. Белорусский вокзал (1971) BDRip 720p

122 | 10

5.31 ГБ

В этой теме нет новых непрочитанных сообщений. Белорусский вокзал (1971) BDRip от HQCLUB

106 | 10

1.45 ГБ

В этой теме нет новых непрочитанных сообщений. Белорусский вокзал (1971) BDRip 1080p

40 | 8

10.49 ГБ

В этой теме нет новых непрочитанных сообщений. Белорусский вокзал (1971) Blu-ray 1080p

102 | 10

20.82 ГБ

В этой теме нет новых непрочитанных сообщений. Белорусский вокзал (1971) HDTVRip от ExKinoRay

30 | 5

1.46 ГБ

В этой теме нет новых непрочитанных сообщений. Белорусский вокзал (1971) WEBRip-AVC от ExKinoRay

26 | 13

1.46 ГБ




Вы не можете начинать темы
Вы не можете отвечать на сообщения
Вы не можете редактировать свои сообщения
Вы не можете удалять свои сообщения
Вы не можете добавлять вложения

Перейти:  
Для Мосгорсуда, Роскомнадзора и рекламодателей: mosgorsud-torrent[собачка]yandex.ru
 Вход
ppkBB3cker v.2 © 2008-2014 @ PPK
[ Time : 0.043s | 16 Queries | GZIP : Off ]

cron