img image001 image001 image001 image001 image001 image001 image001 image001 image001 image001 image001 image001 image001 image001 image001

Planets Sun Sun Sun
Статистика раздачи
Автор: Nickolas3434 | Размер: 2.86 ГБ | Добавлен: 13 дек 2015
Раздают: 84    Качают: 19
Скачать торрент
Скачать торрент
Описание торрента

СообщениеДобавлено: 13 дек 2015 


Информация о фильме
Название: Забытая мелодия для флейты
Год выхода: 1987
Жанр: Мелодрама, комедия
Режиссер: Эльдар Рязанов
В ролях: Леонид Филатов, Татьяна Догилева, Ирина Купченко, Валентин Гафт, Александр Ширвиндт, Сергей Арцибашев, Елена Майорова, Всеволод Санаев, Вацлав Дворжецкий, Александр Панкратов-Черный
О фильме:
У главного героя есть все, о чем мог мечтать советский чиновник - квартира, машина, жена и высокопоставленный тесть. Но накануне очередного повышения у него прихватывает сердце. И вдруг оказывается, что он ужасно одинок и несчастен, и только молоденькая медсестра из ведомственной поликлиники понимает его надломленную душу. Бывший талантливый флейтист, закончивший в свое время консерваторию, оказывается перед сложным выбором: остаться с женой, отец которой обеспечил ему карьеру, квартиру и прочие блага, или предпочесть медсестру, живущую в коммуналке, с которой он лишится всего этого…
Страна: СССР, Мосфильм
Продолжительность: 02:06:29
Перевод: не требуется
Файл
Кодек: x264
Качество: DVDRip-AVC
Видео: MPEG-4 AVC, 2525 Кбит/с, 716x558@764x558
Звук: АС3, 6 ch, 448 Кбит/с, АС3, 1 ch, 224 Кбит/с

raw [info]: 716x558p 16:15 @ 25/1 fps (cfr)
x264 [info]: using SAR=16/15
x264 [info]: using cpu capabilities: MMX2 SSE2Fast SSSE3 SSE4.2 AVX
x264 [info]: profile High, level 4.1
x264 [info]: frame I:547 Avg QP:16.55 size: 70851
x264 [info]: frame P:24166 Avg QP:19.77 size: 28797
x264 [info]: frame B:71074 Avg QP:21.85 size: 6679
========================================================================================================
Общее
Полное имя : R:МОИ РИПЫЗабытая мелодия для флейты_1987-DVDRip-AVC.mkv
Формат : Matroska
Версия формата : Version 2
Размер файла : 2,86 Гбайт
Продолжительность : 2 ч. 6 м.
Общий поток : 3237 Кбит/сек
Программа кодирования : libmatroska 1.4.1
Библиотека кодирования : SolveigMM Matroska Muxer Version 1.0.1502.18
Видео
Идентификатор : 1
Формат : AVC
Формат/Информация : Advanced Video Codec
Профиль формата : High@L4.1
Параметр CABAC формата : Да
Параметр ReFrames формата : 14 кадров
Идентификатор кодека : V_MPEG4/ISO/AVC
Продолжительность : 2 ч. 6 м.
Битрейт : 2525 Кбит/сек
Ширина : 716 пикселей
Высота : 558 пикселей
Соотношение сторон : 4:3
Режим частоты кадров : Постоянный
Частота кадров : 25,000 кадров/сек
Цветовое пространство : YUV
Субдискретизация насыщенности : 4:2:0
Битовая глубина : 8 бит
Тип развёртки : Прогрессивная
Бит/(Пиксели*Кадры) : 0.253
Размер потока : 2,21 Гбайт (77%)
Библиотека кодирования : x264 core 146 r2538 121396c
Настройки программы : cabac=1 / ref=14 / deblock=1:-2:-2 / analyse=0x3:0x133 / me=umh / subme=10 / psy=1 / psy_rd=1.05:0.05 / mixed_ref=1 / me_range=32 / chroma_me=1 / trellis=2 / 8x8dct=1 / cqm=0 / deadzone=21,11 / fast_pskip=0 / chroma_qp_offset=-3 / threads=12 / lookahead_threads=2 / sliced_threads=0 / nr=0 / decimate=0 / interlaced=0 / bluray_compat=0 / constrained_intra=0 / bframes=8 / b_pyramid=2 / b_adapt=2 / b_bias=0 / direct=3 / weightb=1 / open_gop=0 / weightp=2 / keyint=250 / keyint_min=25 / scenecut=40 / intra_refresh=0 / rc=2pass / mbtree=0 / bitrate=2525 / ratetol=1.0 / qcomp=0.63 / qpmin=0 / qpmax=39 / qpstep=4 / cplxblur=20.0 / qblur=0.5 / ip_ratio=1.40 / pb_ratio=1.30 / aq=1:0.90
Язык : English
Default : Нет
Forced : Нет
Цветовой диапазон : Limited
Основные цвета : BT.601 PAL
Характеристики трансфера : BT.470 System B, BT.470 System G
Коэффициенты матрицы : BT.601
Аудио #1
Идентификатор : 2
Формат : AC-3
Формат/Информация : Audio Coding 3
Расширение режима : CM (complete main)
Параметр Endianness формата : Big
Идентификатор кодека : A_AC3
Продолжительность : 2 ч. 6 м.
Вид битрейта : Постоянный
Битрейт : 448 Кбит/сек
Каналы : 6 каналов
Расположение каналов : Front: L C R, Side: L R, LFE
Частота : 48,0 КГц
Битовая глубина : bit0
Метод сжатия : С потерями
Размер потока : 405 Мбайт (14%)
Язык : Russian
Default : Нет
Forced : Нет
Аудио #2
Идентификатор : 3
Формат : AC-3
Формат/Информация : Audio Coding 3
Расширение режима : CM (complete main)
Параметр Endianness формата : Big
Идентификатор кодека : A_AC3
Продолжительность : 2 ч. 6 м.
Вид битрейта : Постоянный
Битрейт : 224 Кбит/сек
Каналы : 1 канал
Расположение каналов : Front: C
Частота : 48,0 КГц
Битовая глубина : bit0
Метод сжатия : С потерями
Размер потока : 203 Мбайт (7%)
Язык : Russian
Default : Нет
Forced

Релиз от:
Автор релиза:



   Похожие торренты   Торрент   Размер 
В этой теме нет новых непрочитанных сообщений. Забытая мелодия для флейты (1987) DVDRip

297 | 29

1.97 ГБ

В этой теме нет новых непрочитанных сообщений. Забытая мелодия для флейты (1987) DVDRip-AVC

111 | 9

2.18 ГБ

В этой теме нет новых непрочитанных сообщений. Забытая мелодия для флейты (1987) DVDRip от New-Team

59 | 28

2.19 ГБ

В этой теме нет новых непрочитанных сообщений. Забытая мелодия для флейты (1987) DVDRip-AVC от New-Team

7 | 24

2.19 ГБ

В этой теме нет новых непрочитанных сообщений. Забытая мелодия для флейты (1987) DVDRip от New-Team

102 | 36

1.46 ГБ

В этой теме нет новых непрочитанных сообщений. Silvercast - Старая мелодия для флейты (2014) MP3

8 | 0

135.77 МБ

В этой теме нет новых непрочитанных сообщений. Забытая мелодия / Zapomniana melodia (1938) TVRip | A

6 | 6

789.6 МБ




Вы не можете начинать темы
Вы не можете отвечать на сообщения
Вы не можете редактировать свои сообщения
Вы не можете удалять свои сообщения
Вы не можете добавлять вложения

Перейти:  
Для Мосгорсуда, Роскомнадзора и рекламодателей: mosgorsud-torrent[собачка]yandex.ru
 Вход
ppkBB3cker v.2 © 2008-2014 @ PPK
[ Time : 0.047s | 14 Queries | GZIP : Off ]

Торрент трекер RUTOR.IN, Не можете зайти на rutor.org? Какой новый адрес рутор? Какое зеркало рутор? Не работает rutor.org и зеркала? Тогда наш торрент специально для вас. Rutor.in неофициальное зеркало rutor. В случае если у Вас заблокирован rutor или вдруг Вы не можете на него зайти, то Вы без труда сможете скачать бесплатно и без рекламы последние новинки кино, игр, сериалов и прочего у нас, на Rutor.in. Не нужно использовать прокси, чтобы зайти на рутор, достаточно воспользоваться нашим ресурсом. Все новые фильмы, игры, сериалы, книги и музыка за 2013 и 2014 годы через торрент бесплатно. Скачивайте фильмы в хорошем качестве, игры для пк, xbox, playstation без регистрации. У нас вы найдете новые Зарубежные сериалы и Русские сериалы 2013, 2014, 2015 годов. Оставайтесь с нами, качайте любимые фильмы, игры, сериалы, книги и музыку.