img image001 image001 image001 image001 image001 image001 image001 image001 image001 image001 image001 image001 image001 image001 image001

Planets Sun Sun Sun
Статистика раздачи
Автор: Nickolas3434 | Размер: 1.67 ГБ | Добавлен: 13 дек 2015
Раздают: 281    Качают: 29
Скачать торрент
Скачать торрент
Описание торрента

СообщениеДобавлено: 13 дек 2015 


Информация о фильме
Название: На войне как на войне
Год выхода: 1968
Жанр: Драма, военный
Режиссер: Виктор Трегубович
В ролях: Михаил Кононов, Олег Борисов, Виктор Павлов, Фёдор Одиноков, Михаил Глузский, Борис Аракелов, Пётр Горин, Юрий Дубровин, Ирина Замотина, Герман Колушкин, Пётр Любешкин, Борис Табаровский, Борис Сичкин, Валентин Зубков, Алексей Кожевников, Владимир Карпенко, Дмитрий Махнич, Владимир Маляр
О фильме:
По одноименной повести Виктора Курочкина. Действие происходит в конце войны. Фильм повествует о боевых буднях экипажа самоходки в период освобождения Правобережной Украины. Младший лейтенант Малешкин, выпускник училища, принимает под своё командование опытный экипаж самоходки СУ-100. Подчиненные Малешкина старше его по возрасту и намного опытнее. Авторитет неопытного командира на каждом шагу подвергается испытаниям. Кроме того, Малешкиным очень недоволен командир батареи, он то и дело грозится снять нерасторопного новичка с командования. В экипаже Малешкина и впрямь постоянно случаются разные неприятности: то в машине обнаружится боевая граната с выпавшей чекой, то случится неисправность как раз в момент выхода полка на марш. Но Малешкин не робкого деятка, а его экипаж - бывалые бойцы, прошедшие уже не один бой. Их совместная жизнь, боевая и будничная, радости и заботы, мужество и героизм - стали основой фильма.
Страна: СССР, Ленфильм
Продолжительность: 01:25:00
Перевод: не требуется
Файл
Кодек: x264
Качество: DVDRip-AVC
Видео: MPEG-4 AVC, 2200 Кбит/с, 720x332@768x332
Звук: AC3, 6 ch, 448 Кбит/с, AC3, 1 ch, 160 Кбит/с

Общее
Уникальный идентификатор : 178511163844999679954643265192259462208 (0x864BFFE4D85CB8E7A2A761F0ED07A440)
Полное имя : R:МОИ РИПЫНа войне, как на войне_1968-DVDRip-AVC.mkv
Формат : Matroska
Версия формата : Version 2
Размер файла : 1,67 Гбайт
Продолжительность : 1 ч. 25 м.
Общий поток : 2809 Кбит/сек
Название фильма : by filbi1976
Дата кодирования : UTC 2015-05-09 07:43:14
Программа кодирования : mkvmerge v5.8.0 ('No Sleep / Pillow') built on Sep 2 2012 15:37:04
Библиотека кодирования : libebml v1.2.3 + libmatroska v1.3.0
Видео
Идентификатор : 1
Формат : AVC
Формат/Информация : Advanced Video Codec
Профиль формата : High@L4.1
Параметр CABAC формата : Да
Параметр ReFrames формата : 15 кадров
Идентификатор кодека : V_MPEG4/ISO/AVC
Продолжительность : 1 ч. 25 м.
Битрейт : 2200 Кбит/сек
Ширина : 720 пикселей
Высота : 332 пикселя
Соотношение сторон : 2,35:1
Режим частоты кадров : Постоянный
Частота кадров : 25,000 кадров/сек
Цветовое пространство : YUV
Субдискретизация насыщенности : 4:2:0
Битовая глубина : 8 бит
Тип развёртки : Прогрессивная
Бит/(Пиксели*Кадры) : 0.368
Размер потока : 1,27 Гбайт (76%)
Библиотека кодирования : x264 core 146 r2538 121396c
Настройки программы : cabac=1 / ref=15 / deblock=1:-2:-2 / analyse=0x3:0x133 / me=umh / subme=10 / psy=1 / psy_rd=1.05:0.15 / mixed_ref=1 / me_range=32 / chroma_me=1 / trellis=2 / 8x8dct=1 / cqm=0 / deadzone=21,11 / fast_pskip=0 / chroma_qp_offset=-3 / threads=12 / lookahead_threads=2 / sliced_threads=0 / nr=0 / decimate=0 / interlaced=0 / bluray_compat=0 / constrained_intra=0 / bframes=12 / b_pyramid=2 / b_adapt=2 / b_bias=0 / direct=3 / weightb=1 / open_gop=0 / weightp=2 / keyint=250 / keyint_min=25 / scenecut=40 / intra_refresh=0 / rc=2pass / mbtree=0 / bitrate=2200 / ratetol=1.0 / qcomp=0.65 / qpmin=0 / qpmax=39 / qpstep=4 / cplxblur=20.0 / qblur=0.5 / ip_ratio=1.40 / pb_ratio=1.30 / aq=1:1.00
Default : Да
Forced : Нет
Цветовой диапазон : Limited
Основные цвета : BT.601 PAL
Характеристики трансфера : BT.470 System B, BT.470 System G
Коэффициенты матрицы : BT.601
Аудио #1
Идентификатор : 2
Формат : AC-3
Формат/Информация : Audio Coding 3
Расширение режима : CM (complete main)
Параметр Endianness формата : Big
Идентификатор кодека : A_AC3
Продолжительность : 1 ч. 25 м.
Вид битрейта : Постоянный
Битрейт : 160 Кбит/сек
Каналы : 1 канал
Расположение каналов : Front: C
Частота : 48,0 КГц
Метод сжатия : С потерями
Размер потока : 97,3 Мбайт (6%)
Заголовок : AC3 1.0 @ 160 kbps
Язык : Russian
Default : Да
Forced : Нет
Аудио #2
Идентификатор : 3
Формат : AC-3
Формат/Информация : Audio Coding 3
Расширение режима : CM (complete main)
Параметр Endianness формата : Big
Идентификатор кодека : A_AC3
Продолжительность : 1 ч. 25 м.
Вид битрейта : Постоянный
Битрейт : 448 Кбит/сек
Каналы : 6 каналов
Расположение каналов : Front: L C R, Side: L R, LFE
Частота : 48,0 КГц
Метод сжатия : С потерями
Размер потока : 272 Мбайт (16%)
Язык : Russian
Default : Нет
Forced : Нет
Меню
00:00:00.000 : en:00:00:00.000
00:03:30.240 : en:00:03:30.240
00:12:13.800 : en:00:12:13.800
00:17:49.360 : en:00:17:49.360
00:22:50.320 : en:00:22:50.320
00:33:20.440 : en:00:33:20.440
00:37:26.480 : en:00:37:26.480
00:44:28.440 : en:00:44:28.440
00:48:41.080 : en:00:48:41.080
00:54:06.080 : en:00:54:06.080
00:58:03.080 : en:00:58:03.080
01:06:01.120 : en:01:06:01.120
01:10:22.640 : en:01:10:22.640

Спасибо за исправленный звук - arkahan
О звуке:
За основу монодорожки AC3 1.0 (проигрывается по умолчанию) взят прилично звучащий левый канал из в целом непотребно звучащего лицензионного псевдо-"стерео" AC3 2.0 @ 192 kbps. Восстановлено несколько "съеденных" звукорежиссёрами букв и провалов, удалено несколько щелчков, имеющих природу технического брака. Творческим образом восстановлен конец финальной песни, варварски обрезанной на полу-ноте за 11 секунд до конца фильма в обоих лицензионных дорожках. Нетронутая лицензионная "5.1" с DVD присутствует в контейнере для "полноты релиза", но к прослушиванию строго не рекомендуется.

Релиз от:
Автор релиза:



   Похожие торренты   Торрент   Размер 
В этой теме нет новых непрочитанных сообщений. На войне как на войне (1968) DVDRip от Youtracker

8 | 7

1.46 ГБ

В этой теме нет новых непрочитанных сообщений. На войне как на войне (1968) DVDRip-AVC от Youtracker

33 | 9

1.46 ГБ

В этой теме нет новых непрочитанных сообщений. На войне как на войне (1968) DVDRip от MediaClub | КПК

36 | 5

382.83 МБ

В этой теме нет новых непрочитанных сообщений. На войне как на войне (1968) DVDRip от Youtracker

25 | 9

744.61 МБ

В этой теме нет новых непрочитанных сообщений. На войне, как на войне (1968) DVD5 by гаврила

74 | 7

3.99 ГБ

В этой теме нет новых непрочитанных сообщений. На войне как на войне (1969) DVDRip от Scarabey

154 | 19

1.45 ГБ

В этой теме нет новых непрочитанных сообщений. Первая чеченская: На войне, как на войне (1999) TVRip от tenow

2 | 6

207.2 МБ




Вы не можете начинать темы
Вы не можете отвечать на сообщения
Вы не можете редактировать свои сообщения
Вы не можете удалять свои сообщения
Вы не можете добавлять вложения

Перейти:  
Для Мосгорсуда, Роскомнадзора и рекламодателей: mosgorsud-torrent[собачка]yandex.ru
 Вход
ppkBB3cker v.2 © 2008-2014 @ PPK
[ Time : 0.029s | 16 Queries | GZIP : Off ]
CGP output time : 0.021s | 5 Queries | GZIP : Off

Торрент трекер RUTOR.IN, Не можете зайти на rutor.org? Какой новый адрес рутор? Какое зеркало рутор? Не работает rutor.org и зеркала? Тогда наш торрент специально для вас. Rutor.in неофициальное зеркало rutor. В случае если у Вас заблокирован rutor или вдруг Вы не можете на него зайти, то Вы без труда сможете скачать бесплатно и без рекламы последние новинки кино, игр, сериалов и прочего у нас, на Rutor.in. Не нужно использовать прокси, чтобы зайти на рутор, достаточно воспользоваться нашим ресурсом. Все новые фильмы, игры, сериалы, книги и музыка за 2013 и 2014 годы через торрент бесплатно. Скачивайте фильмы в хорошем качестве, игры для пк, xbox, playstation без регистрации. У нас вы найдете новые Зарубежные сериалы и Русские сериалы 2013, 2014, 2015 годов. Оставайтесь с нами, качайте любимые фильмы, игры, сериалы, книги и музыку.