img image001 image001 image001 image001 image001 image001 image001 image001 image001 image001 image001 image001 image001 image001 image001

Planets Sun Sun Sun
Статистика раздачи
Автор: Nickolas3434 | Размер: 3.15 ГБ | Добавлен: 13 дек 2015
Раздают: 268    Качают: 30
Скачать торрент
Скачать торрент
Описание торрента

СообщениеДобавлено: 13 дек 2015 


Год выпуска: 2015
Страна: Германия , Россия
Производство: Moonbeam Film Studio
Жанр: Ужасы, триллер, драма
Режиссёр: Павел Хвалеев
В ролях: Полина Давыдова, Евгений Гагарин, Любовь Игнатушко
Перевод: Оригинал
Субтитры: Английский. (Вшитые, отключаемые / UTF-8)
Описание: В маленький европейский городок, в котором живут сёстры Айя и Мирра, пришла неизвестная болезнь, которая унесла жизни многих горожан. После смерти мамы заболевает младшая Мирра. Понимая, что традиционная медицина бессильна перед болезнью сестры, Айя обращается за помощью к близкому другу семьи, приходскому священнику отцу Герману. В его доме Айя случайно находит книги далёкие от традиционной религии.
Она узнаёт, что только проникнув в больное подсознание Мирры и отыскав истинную причину её болезни, она получит шанс на спасение сестры. Айя готова пройти страшный ритуал, погрузиться в недра подсознания и встретиться лицом к лицу с обитающими там демонами. Но сможет ли она справиться с собственным страхом, когда узнает все тайны прошлой жизни сестры?

• Фильм объездил более 20 международных кинофестивалей, принимая участие в рамках основных конкурсных программ. На кинофестивале в Австралии 9th Byron Bay International Film Festival 2015 фильм III получил главный приз в номинации «Best Cinematography».
• 23 октября 2015 года фильм «III» (немецкая версия названия «III — Das Ritual») вышел в прокат в Германии и Австрии и голос Отца Германа озвучил немецкий актер Стефан Гюнтер, голосом которого в Германии говорят персонажи Брэдли Купера. Расходы по дублированию фильма на немецкий язык составили 25 000 евро, что в несколько раз превышает бюджет самой ленты, снятой режиссёром на собственные сбережения.
• Над фильмом работало всего восемь человек, Александра Хвалеева — сценарист, и она же шила практически все костюмы героев. Олег Мустафин помогал со сценарием и в то же время отвечал практически за весь реквизит и безопасность во время сложных сцен, а также помогал с гримом. Евгения Мустафина — исполнительный продюсер и она же координатор, отвечающий за перевод субтитров на другие языки. Ответственный за монтаж, цветокоррекцию, визуальные эффекты и музыку был режиссер.
• В фильме нет ни одного профессионального актера. Изначальная версия сценария была написана под одну главную героиню и Отца Германа, но после встречи режиссера с Полиной Давыдовой, он принял решение прописать ещё одну роль.

Релиз от:
Качество: BDRip 720p | Сэмпл
Продолжительность: 01:20:25
Формат: MKV
Главы: Есть
Видео кодек: x264
Аудио кодек: AC3
Видео: 1280x544 (2.35:1), 24 fps, x264 ~4857 kbps, 0.291 bit/pixel
Аудио: : AC3, 48 kHz, 2 ch, ~640 kbps |Оригинал|

Общее
Формат : Matroska
Версия формата : Version 2
Размер файла : 3,15 Гбайт
Продолжительность : 1 ч. 20 м.
Общий поток : 5608 Кбит/сек
Название фильма : Три / III (2015) - Release for HDCLUB
Дата кодирования : UTC 2015-12-11 11:07:12
Программа кодирования : mkvmerge v5.7.0 ('The Whirlwind') built on Jul 8 2012 20:08:51
Библиотека кодирования : libebml v1.2.3 + libmatroska v1.3.0
Видео
Идентификатор : 1
Формат : AVC
Формат/Информация : Advanced Video Codec
Профиль формата : High@L4.1
Параметр CABAC формата : Да
Параметр ReFrames формата : 12 кадров
Идентификатор кодека : V_MPEG4/ISO/AVC
Продолжительность : 1 ч. 20 м.
Битрейт : 4857 Кбит/сек
Ширина : 1280 пикселей
Высота : 544 пикселя
Соотношение сторон : 2,35:1
Режим частоты кадров : Постоянный
Частота кадров : 24,000 кадра/сек
Цветовое пространство : YUV
Субдискретизация насыщенности : 4:2:0
Битовая глубина : 8 бит
Тип развёртки : Прогрессивная
Бит/(Пиксели*Кадры) : 0.291
Размер потока : 2,73 Гбайт (87%)
Библиотека кодирования : x264 core 146 r2538kMod 121396c
Настройки программы : cabac=1 / ref=12 / deblock=1:-3:-3 / analyse=0x3:0x133 / me=umh / subme=10 / psy=1 / fade_compensate=0.00 / psy_rd=1.10:0.15 / mixed_ref=1 / me_range=24 / chroma_me=1 / trellis=2 / 8x8dct=1 / cqm=0 / deadzone=21,11 / fast_pskip=0 / chroma_qp_offset=-3 / threads=12 / lookahead_threads=2 / sliced_threads=0 / nr=0 / decimate=0 / interlaced=0 / bluray_compat=0 / constrained_intra=0 / fgo=0 / bframes=7 / b_pyramid=2 / b_adapt=2 / b_bias=0 / direct=3 / weightb=1 / open_gop=0 / weightp=2 / keyint=250 / keyint_min=24 / scenecut=40 / intra_refresh=0 / rc_lookahead=60 / rc=crf / mbtree=0 / crf=17.5000 / qcomp=0.70 / qpmin=0 / qpmax=69 / qpstep=4 / vbv_maxrate=62500 / vbv_bufsize=78125 / crf_max=0.0 / nal_hrd=none / filler=0 / ip_ratio=1.30 / pb_ratio=1.20 / aq=3:0.80
Язык : Russian
Default : Да
Forced : Нет
Цветовой диапазон : Limited
Коэффициенты матрицы : BT.709
Аудио
Идентификатор : 2
Формат : AC-3
Формат/Информация : Audio Coding 3
Расширение режима : CM (complete main)
Параметр Endianness формата : Big
Идентификатор кодека : A_AC3
Продолжительность : 1 ч. 20 м.
Вид битрейта : Постоянный
Битрейт : 640 Кбит/сек
Каналы : 2 канала
Расположение каналов : Front: L R
Частота : 48,0 КГц
Метод сжатия : С потерями
Размер потока : 368 Мбайт (11%)
Язык : Russian
Default : Да
Forced : Нет
Текст
Идентификатор : 3
Формат : UTF-8
Идентификатор кодека : S_TEXT/UTF8
Идентификатор кодека/Информация : UTF-8 Plain Text
Язык : English
Default : Нет
Forced : Нет
Меню
00:00:00.000 : en:00:00:00.000
00:05:22.958 : en:00:05:22.958
00:11:29.083 : en:00:11:29.083
00:19:20.208 : en:00:19:20.208
00:31:55.125 : en:00:31:55.125
00:40:51.958 : en:00:40:51.958
00:50:59.625 : en:00:50:59.625
01:01:12.750 : en:01:01:12.750



   Похожие торренты   Торрент   Размер 
В этой теме нет новых непрочитанных сообщений. Дивергент, глава 2: Инсургент / Insurgent (2015) Blu-ray 1080p от HDCLUB | RUS Transfer | D | лицензия

169 | 39

20.58 ГБ

В этой теме нет новых непрочитанных сообщений. Страховщик / Automata (2014) Blu-Ray 1080i от HDClub | Rus Transfer | D | Лицензия

45 | 23

19.97 ГБ

В этой теме нет новых непрочитанных сообщений. Три (2015) BDRip 720p | GER Transfer | Лицензия

756 | 71

4.67 ГБ

В этой теме нет новых непрочитанных сообщений. Вне/себя / Self/less (2015) BDRip 720p | NOR Transfer | Лицензия

255 | 24

7 ГБ

В этой теме нет новых непрочитанных сообщений. Лекарь: Ученик Авиценны / The Physician (2013) BDRemux 1080р от HDClub | ESP Transfer | D | Лицензия

42 | 10

33.01 ГБ

В этой теме нет новых непрочитанных сообщений. Легенда / Legend (2015) BDRip 720p от ivandubskoj | Rus Transfer | Лицензия

2457 | 168

4.37 ГБ

В этой теме нет новых непрочитанных сообщений. Скорость: Автобус 657 / Heist (2015) BDRip 720p | US Transfer | Лицензия

277 | 15

5.82 ГБ




Вы не можете начинать темы
Вы не можете отвечать на сообщения
Вы не можете редактировать свои сообщения
Вы не можете удалять свои сообщения
Вы не можете добавлять вложения

Перейти:  
Для Мосгорсуда, Роскомнадзора и рекламодателей: mosgorsud-torrent[собачка]yandex.ru
 Вход
ppkBB3cker v.2 © 2008-2014 @ PPK
[ Time : 0.051s | 14 Queries | GZIP : Off ]

Торрент трекер RUTOR.IN, Не можете зайти на rutor.org? Какой новый адрес рутор? Какое зеркало рутор? Не работает rutor.org и зеркала? Тогда наш торрент специально для вас. Rutor.in неофициальное зеркало rutor. В случае если у Вас заблокирован rutor или вдруг Вы не можете на него зайти, то Вы без труда сможете скачать бесплатно и без рекламы последние новинки кино, игр, сериалов и прочего у нас, на Rutor.in. Не нужно использовать прокси, чтобы зайти на рутор, достаточно воспользоваться нашим ресурсом. Все новые фильмы, игры, сериалы, книги и музыка за 2013 и 2014 годы через торрент бесплатно. Скачивайте фильмы в хорошем качестве, игры для пк, xbox, playstation без регистрации. У нас вы найдете новые Зарубежные сериалы и Русские сериалы 2013, 2014, 2015 годов. Оставайтесь с нами, качайте любимые фильмы, игры, сериалы, книги и музыку.