img image001 image001 image001 image001 image001 image001 image001 image001 image001 image001 image001 image001 image001 image001 image001

Planets Sun Sun Sun
Статистика раздачи
Автор: Nickolas3434 | Размер: 1.46 ГБ | Добавлен: 16 дек 2015
Раздают: 13    Качают: 4
Скачать торрент
Скачать торрент
Описание торрента

СообщениеДобавлено: 16 дек 2015 

Страна: СССР
Производство: Мосфильм
Жанр: комедия, экранизация
Год выпуска: 1952
Продолжительность: 02:04:04
Перевод: Не требуется
Cубтитры: нет
Оригинальная аудиодорожка: русский
Режиссер: Владимир Петров
В ролях:
Юрий Толубеев, Анастасия Георгиевская, Тамара Носова, Павел Павленко, Сергей Блинников, Михаил Яншин, Эраст Гарин, Александр Полинский, Василий Корнуков, Игорь Горбачёв, Алексей Грибов, Александр Гузеев, Евгений Агуров, Николай Рыбников (II), Николай Чистяков, Сергей Калинин, Иван Рыжов, Валентин Онищенко, Александр Щагин, Н. Тимяков, Анастасия Зуева, Елена Понсова, Павел Иванов (IV), Анатолий Кубацкий, Анна Заржицкая...
Полный список актёров
Описание:
В сытом довольстве живет Городничий Сквозник-Дмухановский, привыкший цепко хватать все, что "плывет в руки". Среди чиновников города процветает казнокрадство и взяточничество. Неожиданная весть о предстоящем приезде ревизора мгновенно нарушает мирное течение жизни, ...а в местной гостинице уже две недели проживает "инкогнито" некий петербургский чиновник, который ведет себя странно и ни за что не платит... Пытаясь, замести следы преступлений, чиновники во главе с Городничим организуют достойную встречу мнимому ревизору. Принятый за ревизора "елистратишка" Хлестаков быстро осваивается со своим новым положением, сватается к дочке Городничего и одновременно начинает волочиться за его женой. Осчастливленный благосклонностью "ревизора", Сквозник-Дмухановский, вершит расправу, над поднявшими было голову купцами и мещанами. Между тем Хлестаков, прихватив взятые у чиновников деньги и "подарки" купцов, благополучно скрывается из города. Письмо Хлестакова в Петербург открывает всем истину. Сообщение о приезде настоящего ревизора окончательно сражает попавшего впросак городничего.





Источник: DVB
Качество видео: SATRip
Формат видео: AVI
Видео: 672x496 (4:3), 25 fps, XviD ~ 1480 kbps avg, 0.178 bit/pixel
Аудио: 48 kHz, Dolby Digital AC3 2.0, 192 kbps
Раздача от:
Общее
Полное имя : Revizor.1952.SATRip_[New-team]_by_AVP_Studio.avi
Формат : AVI
Формат/Информация : Audio Video Interleave
Размер файла : 1,46 Гбайт
Продолжительность : 2 ч. 4 м.
Общий поток : 1681 Кбит/сек
Программа кодирования : VirtualDubMod 1.5.10.3 | www.virtualdub-fr.org || (build 2550/release)
Библиотека кодирования : VirtualDubMod build 2550/release
Видео
Идентификатор : 0
Формат : MPEG-4 Visual
Профиль формата : Advanced Simple@L5
Параметр BVOP формата : 1
Параметр QPel формата : Нет
Параметр GMC формата : Без точки перехода
Параметр матрицы формата : Выборочная
Идентификатор кодека : XVID
Идентификатор кодека/Подсказка : XviD
Продолжительность : 2 ч. 4 м.
Битрейт : 1480 Кбит/сек
Ширина : 672 пикселя
Высота : 496 пикселей
Соотношение сторон : 4:3
Частота кадров : 25,000 кадров/сек
Цветовое пространство : YUV
Субдискретизация насыщенности : 4:2:0
Битовая глубина : 8 бит
Тип развёртки : Прогрессивная
Метод сжатия : С потерями
Бит/(Пиксели*Кадры) : 0.178
Размер потока : 1,28 Гбайт (88%)
Библиотека кодирования : XviD 1.2.1 (UTC 2008-12-04)
Аудио
Идентификатор : 1
Формат : AC-3
Формат/Информация : Audio Coding 3
Расширение режима : CM (complete main)
Параметр Endianness формата : Big
Идентификатор кодека : 2000
Продолжительность : 2 ч. 4 м.
Вид битрейта : Постоянный
Битрейт : 192 Кбит/сек
Каналы : 2 канала
Расположение каналов : Front: L R
Частота : 48,0 КГц
Метод сжатия : С потерями
Размер потока : 170 Мбайт (11%)
Выравнивание : Разделение по промежуткам
Продолжительность промежутка : 40 мс. (1,00 видеокадр)
Время предзагрузки промежутка : 500 мс





   Похожие торренты   Торрент   Размер 
В этой теме нет новых непрочитанных сообщений. Ревизор (1952) SATRip от New-Team

40 | 10

1.09 ГБ

В этой теме нет новых непрочитанных сообщений. Ревизор (1952) SATRip-AVC от New-Team

438 | 17

1.46 ГБ

В этой теме нет новых непрочитанных сообщений. Ревизор (1952) SATRip

132 | 23

2.14 ГБ

В этой теме нет новых непрочитанных сообщений. Ревизор (1952) DVDRip

63 | 2

1.38 ГБ

В этой теме нет новых непрочитанных сообщений. Неразлучные друзья (1952) SATRip от New-Team

16 | 10

744.33 МБ

В этой теме нет новых непрочитанных сообщений. Неразлучные друзья (1952) SATRip от New-Team

14 | 6

1.18 ГБ

В этой теме нет новых непрочитанных сообщений. Неразлучные друзья (1952) SATRip-AVC от New-Team

22 | 6

1.09 ГБ




Вы не можете начинать темы
Вы не можете отвечать на сообщения
Вы не можете редактировать свои сообщения
Вы не можете удалять свои сообщения
Вы не можете добавлять вложения

Перейти:  
Для Мосгорсуда, Роскомнадзора и рекламодателей: mosgorsud-torrent[собачка]yandex.ru
 Вход
ppkBB3cker v.2 © 2008-2014 @ PPK
[ Time : 0.029s | 15 Queries | GZIP : Off ]

Торрент трекер RUTOR.IN, Не можете зайти на rutor.org? Какой новый адрес рутор? Какое зеркало рутор? Не работает rutor.org и зеркала? Тогда наш торрент специально для вас. Rutor.in неофициальное зеркало rutor. В случае если у Вас заблокирован rutor или вдруг Вы не можете на него зайти, то Вы без труда сможете скачать бесплатно и без рекламы последние новинки кино, игр, сериалов и прочего у нас, на Rutor.in. Не нужно использовать прокси, чтобы зайти на рутор, достаточно воспользоваться нашим ресурсом. Все новые фильмы, игры, сериалы, книги и музыка за 2013 и 2014 годы через торрент бесплатно. Скачивайте фильмы в хорошем качестве, игры для пк, xbox, playstation без регистрации. У нас вы найдете новые Зарубежные сериалы и Русские сериалы 2013, 2014, 2015 годов. Оставайтесь с нами, качайте любимые фильмы, игры, сериалы, книги и музыку.