img image001 image001 image001 image001 image001 image001 image001 image001 image001 image001 image001 image001 image001 image001 image001

Planets Sun Sun Sun
Статистика раздачи
Автор: Nickolas3434 | Размер: 1.65 ГБ | Добавлен: 17 дек 2015
Раздают: 68    Качают: 4
Скачать торрент
Скачать торрент
Описание торрента

СообщениеДобавлено: 17 дек 2015 


Информация о фильме
Название: Сукины дети
Год выхода: 1990
Жанр: Драма, трагикомедия
Режиссер: Леонид Филатов
В ролях: Владимир Ильин, Лариса Удовиченко, Александр Абдулов, Евгений Евстигнеев, Лия Ахеджакова, Владимир Самойлов, Елена Цыплакова, Татьяна Кравченко, Нина Шацкая, Сергей Маковецкий, Мария Зубарева, Галина Петрова, Александр Ильин ст., Станислав Говорухин, Людмила Зайцева, Леонид Филатов, Валерия Богук, Владимир Зубенко, Наталья Ромашенко, Ирина Илюшко, Пётр Крылов, Мария Барабанова, Сергей Борисов, Юрий Губарев, Николай Иванов (I), Юрий Одиноков, Армен Петросян, Лариса Полякова, Вадим Померанцев, Андрей Тартаков, Виктор Царев, Иван Власов, Игорь Воробьёв, Нина Юмашева, Алексей Краснопольский, Геннадий Бордачёв, Вадим Любшин, Мария Солодовникова
О фильме:
Завязка фильма основана на реальной исторической ситуации, сложившейся в театре на Таганке, когда его руководитель Юрий Любимов уехал из СССР (1984) и сделал ряд антипартийных высказываний, после чего его отстранили от управления театром и лишили гражданства. «Сукины дети» рассказывает о том, как труппа восприняла эти события и давление на них государства, а также показывает события, которые не случились — забастовку артистов, голодовку, угрозу самосожжения и смерть одного из них.
Страна: СССР, Мосфильм
Продолжительность: 01:32:50
Перевод: не требуется
Файл
Кодек: x264
Качество: DVDRip-AVC
Видео: MPEG-4 AVC, 2100 Кбит/с, 696x572@742x572
Звук: AC3, 6 ch, 448 Кбит/с

Общее
Уникальный идентификатор : 234915997890019278986286211912466929171 (0xB0BB2CEBF153E76BAF4C9D1508FB9613)
Полное имя : D:Сукины дети_1990-DVDRip-AVC.mkv
Формат : Matroska
Версия формата : Version 2
Размер файла : 1,65 Гбайт
Продолжительность : 1 ч. 32 м.
Общий поток : 2550 Кбит/сек
Дата кодирования : UTC 2015-12-16 12:10:01
Программа кодирования : mkvmerge v5.8.0 ('No Sleep / Pillow') built on Sep 2 2012 15:37:04
Библиотека кодирования : libebml v1.2.3 + libmatroska v1.3.0
Видео
Идентификатор : 1
Формат : AVC
Формат/Информация : Advanced Video Codec
Профиль формата : High@L4.1
Параметр CABAC формата : Да
Параметр ReFrames формата : 14 кадров
Идентификатор кодека : V_MPEG4/ISO/AVC
Продолжительность : 1 ч. 32 м.
Битрейт : 2100 Кбит/сек
Ширина : 696 пикселей
Высота : 572 пикселя
Соотношение сторон : 1,297
Соотношение сторон в оригинале : 1,298
Режим частоты кадров : Постоянный
Частота кадров : 25,000 кадров/сек
Цветовое пространство : YUV
Субдискретизация насыщенности : 4:2:0
Битовая глубина : 8 бит
Тип развёртки : Прогрессивная
Бит/(Пиксели*Кадры) : 0.211
Размер потока : 1,33 Гбайт (80%)
Библиотека кодирования : x264 core 148 r2638 7599210
Настройки программы : cabac=1 / ref=14 / deblock=1:-2:-2 / analyse=0x3:0x133 / me=umh / subme=10 / psy=1 / psy_rd=1.05:0.10 / mixed_ref=1 / me_range=32 / chroma_me=1 / trellis=2 / 8x8dct=1 / cqm=0 / deadzone=21,11 / fast_pskip=0 / chroma_qp_offset=-3 / threads=12 / lookahead_threads=3 / sliced_threads=0 / nr=0 / decimate=0 / interlaced=0 / bluray_compat=0 / constrained_intra=0 / bframes=10 / b_pyramid=2 / b_adapt=2 / b_bias=0 / direct=3 / weightb=1 / open_gop=0 / weightp=2 / keyint=250 / keyint_min=25 / scenecut=40 / intra_refresh=0 / rc=2pass / mbtree=0 / bitrate=2100 / ratetol=1.0 / qcomp=0.63 / qpmin=0 / qpmax=39 / qpstep=4 / cplxblur=20.0 / qblur=0.5 / ip_ratio=1.40 / pb_ratio=1.30 / aq=1:1.00
Язык : English
Default : Да
Forced : Нет
Цветовой диапазон : Limited
Основные цвета : BT.601 PAL
Характеристики трансфера : BT.470 System B, BT.470 System G
Коэффициенты матрицы : BT.601
Аудио
Идентификатор : 2
Формат : AC-3
Формат/Информация : Audio Coding 3
Расширение режима : CM (complete main)
Параметр Endianness формата : Big
Идентификатор кодека : A_AC3
Продолжительность : 1 ч. 32 м.
Вид битрейта : Постоянный
Битрейт : 448 Кбит/сек
Каналы : 6 каналов
Расположение каналов : Front: L C R, Side: L R, LFE
Частота : 48,0 КГц
Метод сжатия : С потерями
Размер потока : 297 Мбайт (18%)
Язык : Russian
Default : Да
Forced : Нет

Релиз от:
Автор релиза:



   Похожие торренты   Торрент   Размер 
В этой теме нет новых непрочитанных сообщений. Сукины дети (1990) DVDRip

240 | 18

1.46 ГБ

В этой теме нет новых непрочитанных сообщений. Сукины дети (1990) DVDRip от Zona-X.TV

7 | 3

1.36 ГБ

В этой теме нет новых непрочитанных сообщений. Большой Детский Хор - Дружат дети на планете (1970-1990) (2006) MP3 от BestSound ExKinoRay

1 | 5

156.21 МБ

В этой теме нет новых непрочитанных сообщений. Кремлёвские дети [01-06] (2007-2008) DVDRip от ExKinoRay

7 | 10

4.78 ГБ

В этой теме нет новых непрочитанных сообщений. Дети шпионов 3-D: Игра окончена / Spy Kids 3-D: Game Over (2003) DVDRip от ExKinoRay | 3D-video

23 | 8

1.22 ГБ

В этой теме нет новых непрочитанных сообщений. Осторожно! Дети играют / Дети каннибалы / Beware! Children at Play (1989) DVDRip-AVC от olegek70

7 | 60

1.37 ГБ

В этой теме нет новых непрочитанных сообщений. Дети - Коллекция [2 Альбома] (1990-2000) FLAC

4 | 2

1.05 ГБ




Вы не можете начинать темы
Вы не можете отвечать на сообщения
Вы не можете редактировать свои сообщения
Вы не можете удалять свои сообщения
Вы не можете добавлять вложения

Перейти:  
Для Мосгорсуда, Роскомнадзора и рекламодателей: mosgorsud-torrent[собачка]yandex.ru
 Вход
ppkBB3cker v.2 © 2008-2014 @ PPK
[ Time : 0.047s | 14 Queries | GZIP : Off ]

Торрент трекер RUTOR.IN, Не можете зайти на rutor.org? Какой новый адрес рутор? Какое зеркало рутор? Не работает rutor.org и зеркала? Тогда наш торрент специально для вас. Rutor.in неофициальное зеркало rutor. В случае если у Вас заблокирован rutor или вдруг Вы не можете на него зайти, то Вы без труда сможете скачать бесплатно и без рекламы последние новинки кино, игр, сериалов и прочего у нас, на Rutor.in. Не нужно использовать прокси, чтобы зайти на рутор, достаточно воспользоваться нашим ресурсом. Все новые фильмы, игры, сериалы, книги и музыка за 2013 и 2014 годы через торрент бесплатно. Скачивайте фильмы в хорошем качестве, игры для пк, xbox, playstation без регистрации. У нас вы найдете новые Зарубежные сериалы и Русские сериалы 2013, 2014, 2015 годов. Оставайтесь с нами, качайте любимые фильмы, игры, сериалы, книги и музыку.