img image001 image001 image001 image001 image001 image001 image001 image001 image001 image001 image001 image001 image001 image001 image001

Planets Sun Sun Sun
Статистика раздачи
Автор: Nickolas3434 | Размер: 748.89 МБ | Добавлен: 24 дек 2015
Раздают: 580    Качают: 42
Скачать торрент
Скачать торрент
Описание торрента

СообщениеДобавлено: 24 дек 2015 


Информация о фильме
Название: Райские кущи
Год выхода: 2015
Жанр: Драма, экранизация
Режиссер: Александр Прошкин
В ролях: Евгений Цыганов, Чулпан Хаматова, Екатерина Смирнова, Дмитрий Куличков, Артем Семакин, Виталий Хаев, Алёна Яковлева, Ангелина Миримская, Виктор Немец, Агриппина Стеклова
О фильме:
Креативный циник и остроумный бабник, Виктор Зилов осыпан подарками судьбы: карьерный взлет, возродившаяся страсть в отношениях с чудесной, умной, красивой женой, новая квартира в элитном квартале, в «кущах» местного провинциального рая. Но как вынести пустоту души и пошлость благополучия? С такими, как он, трудно жить, но их невозможно не любить…

Страна: Россия
Студия: Кинокомпания «ТАЛАН» при участии студии «АМКАРТ»
Продолжительность: 01:43:40
Перевод: Не требуется
Файл
Кодек: XviD
Качество: WEB-DLRip | iTunes
Видео: 592x320 (1.85:1), 25 fps, XviD build 73 ~872 kbps avg, 0.18 bit/pixel
Звук: 48 kHz, MPEG Layer 3, 2 ch, ~128.00 kbps avg
Субтитры: Отсутствует
Семпл
General
Complete name : D:ТоррентыРИП ОТ ШКИПЕРРайские кущиR4ysk1e.Kuschi.2015.O.WEBDLrip by shkiper.avi
Format : AVI
Format/Info : Audio Video Interleave
File size : 749 MiB
Duration : 1h 43mn
Overall bit rate : 1 010 Kbps
Writing application : VirtualDubMod 1.5.10.3 | www.virtualdub-fr.org || (build 2550/release)
Writing library : VirtualDubMod build 2550/release
Video
ID : 0
Format : MPEG-4 Visual
Format profile : Advanced Simple@L5
Format settings, BVOP : 1
Format settings, QPel : No
Format settings, GMC : No warppoints
Format settings, Matrix : Custom
Codec ID : XVID
Codec ID/Hint : XviD
Duration : 1h 43mn
Bit rate : 872 Kbps
Width : 592 pixels
Height : 320 pixels
Display aspect ratio : 1.85:1
Frame rate : 25.000 fps
Color space : YUV
Chroma subsampling : 4:2:0
Bit depth : 8 bits
Scan type : Progressive
Compression mode : Lossy
Bits/(Pixel*Frame) : 0.184
Stream size : 647 MiB (86%)
Writing library : XviD 73
Audio
ID : 1
Format : MPEG Audio
Format version : Version 1
Format profile : Layer 3
Mode : Joint stereo
Mode extension : MS Stereo
Codec ID : 55
Codec ID/Hint : MP3
Duration : 1h 43mn
Bit rate mode : Constant
Bit rate : 128 Kbps
Channel(s) : 2 channels
Sampling rate : 48.0 KHz
Compression mode : Lossy
Stream size : 94.9 MiB (13%)
Alignment : Aligned on interleaves
Interleave, duration : 40 ms (1.00 video frame)
Interleave, preload duratio : 504 ms
Writing library : LAME3.99r
Encoding settings : -m j -V 4 -q 2 -lowpass 17 -b 128

Релиз от:



   Похожие торренты   Торрент   Размер 
В этой теме нет новых непрочитанных сообщений. Райские кущи (2015) WEB-DLRip | iTunes

4504 | 249

1.46 ГБ

В этой теме нет новых непрочитанных сообщений. Райские кущи (2015) WEB-DLRip от Scarabey | iTunes

318 | 40

1.45 ГБ

В этой теме нет новых непрочитанных сообщений. Райские кущи (2015) WEB-DL 720p | iTunes

271 | 23

3.21 ГБ

В этой теме нет новых непрочитанных сообщений. Райские кущи (2015) WEB-DL 1080p | iTunes

590 | 32

3.97 ГБ

В этой теме нет новых непрочитанных сообщений. SOS, Дед Мороз или Все сбудется! (2015) WEB-DLRip от Шкипер

1730 | 113

746.39 МБ

В этой теме нет новых непрочитанных сообщений. Зеленая карета (2015) WEB-DLRip от Шкипер

2115 | 99

744.98 МБ

В этой теме нет новых непрочитанных сообщений. Райские поездки / Paradise Trips (2015) DVDRip от kinosafe | L1

544 | 51

1.37 ГБ




Вы не можете начинать темы
Вы не можете отвечать на сообщения
Вы не можете редактировать свои сообщения
Вы не можете удалять свои сообщения
Вы не можете добавлять вложения

Перейти:  
Для Мосгорсуда, Роскомнадзора и рекламодателей: mosgorsud-torrent[собачка]yandex.ru
 Вход
ppkBB3cker v.2 © 2008-2014 @ PPK
[ Time : 0.023s | 15 Queries | GZIP : Off ]

Торрент трекер RUTOR.IN, Не можете зайти на rutor.org? Какой новый адрес рутор? Какое зеркало рутор? Не работает rutor.org и зеркала? Тогда наш торрент специально для вас. Rutor.in неофициальное зеркало rutor. В случае если у Вас заблокирован rutor или вдруг Вы не можете на него зайти, то Вы без труда сможете скачать бесплатно и без рекламы последние новинки кино, игр, сериалов и прочего у нас, на Rutor.in. Не нужно использовать прокси, чтобы зайти на рутор, достаточно воспользоваться нашим ресурсом. Все новые фильмы, игры, сериалы, книги и музыка за 2013 и 2014 годы через торрент бесплатно. Скачивайте фильмы в хорошем качестве, игры для пк, xbox, playstation без регистрации. У нас вы найдете новые Зарубежные сериалы и Русские сериалы 2013, 2014, 2015 годов. Оставайтесь с нами, качайте любимые фильмы, игры, сериалы, книги и музыку.