img image001 image001 image001 image001 image001 image001 image001 image001 image001 image001 image001 image001 image001 image001 image001

Planets Sun Sun Sun
Статистика раздачи
Автор: Nickolas3434 | Размер: 746.03 МБ | Добавлен: 27 дек 2015
Раздают: 75    Качают: 7
Скачать торрент
Скачать торрент
Описание торрента

СообщениеДобавлено: 27 дек 2015 


Информация о фильме
Название: Город Зеро
Год выхода: 1989
Жанр: Драма, трагикомедия, фантасмагория
Режиссёр: Карен Шахназаров
В ролях: Леонид Филатов, Олег Басилашвили, Владимир Меньшов, Армен Джигарханян, Евгений Евстигнеев, Алексей Жарков, Пётр Щербаков, Елена Аржаник, Татьяна Хвостикова (Соболь), Юрий Шерстнёв, Александр Беспалый, Мисак Геворкян, Алёша Гордыдов, Феликс Дадаев, Евгений Зернов, Аркадий Идес, Виктор Поморцев, Ольга Кукина, Наталья Рахвалова, Нелли Чуванова, Федор Шеленков, Олег Савосин, Виктор Гайнов, Михаил Солодовник
О фильме: Отправившись в командировку, герой фильма неожиданно попадет в фантастический город. Он очень похож на наш мир, только скрытая абсурдность повседневной жизни здесь стала явной. Город Зеро открывает герою одну тайну за другой, и вернуться в привычную реальность становится все трудней...

Страна: СССР
Студия: Мосфильм
Продолжительность: 01:41:44
Перевод: Не требуется (оригинальный)
Файл
Формат: avi
Качество: HDRip (BDRip.1080p)
Видео: XviD, 640х464, 23.976fps, 888kbps
Аудио: MPEG Layer 3, 2ch, 48000Hz, 128kbps

General
Complete name : Gorod.Zero.1989.O.HDRip.700.CurHaJI.avi
Format : AVI
Format/Info : Audio Video Interleave
File size : 746 MiB
Duration : 1h 41mn
Overall bit rate : 1 025 Kbps
Movie name : Gorod.Zero.1989.O.HDRip.700.CurHaJI
Writing application : Lavf53.13.0
Writing library : VirtualDub build 35491/release
Video
ID : 0
Format : MPEG-4 Visual
Format profile : Advanced Simple@L5
Format settings, BVOP : 2
Format settings, QPel : No
Format settings, GMC : No warppoints
Format settings, Matrix : Custom
Codec ID : XVID
Codec ID/Hint : XviD
Duration : 1h 41mn
Bit rate : 888 Kbps
Width : 640 pixels
Height : 464 pixels
Display aspect ratio : 1.379
Frame rate : 23.976 fps
Color space : YUV
Chroma subsampling : 4:2:0
Bit depth : 8 bits
Scan type : Progressive
Compression mode : Lossy
Bits/(Pixel*Frame) : 0.125
Stream size : 646 MiB (87%)
Writing library : XviD 64
Audio
ID : 1
Format : MPEG Audio
Format version : Version 1
Format profile : Layer 3
Codec ID : 55
Codec ID/Hint : MP3
Duration : 1h 41mn
Bit rate mode : Constant
Bit rate : 128 Kbps
Channel(s) : 2 channels
Sampling rate : 48.0 KHz
Compression mode : Lossy
Stream size : 93.1 MiB (12%)
Alignment : Split accross interleaves
Interleave, duration : 42 ms (1.00 video frame)
Interleave, preload duration : 500 ms
Writing library : L3.99r
Encoding settings : -m s -V 4 -q 2 -lowpass 17 -b 128


Релиз от:



   Похожие торренты   Торрент   Размер 
В этой теме нет новых непрочитанных сообщений. Город Зеро (1989) DVDRip

10 | 6

694.95 МБ

В этой теме нет новых непрочитанных сообщений. Город Зеро (1989) BDRip 1080p

28 | 5

7.76 ГБ

В этой теме нет новых непрочитанных сообщений. Город Зеро (1989) BDRip от HQCLUB

28 | 5

2 ГБ

В этой теме нет новых непрочитанных сообщений. Город Зеро + бонус [Фильм о фильме] (1989) DVDRip | Реставрация от KinoZalSat

18 | 11

2.51 ГБ

В этой теме нет новых непрочитанных сообщений. Город Зеро (1988) DVDRip

12 | 5

1.46 ГБ

В этой теме нет новых непрочитанных сообщений. Город Зеро (1988) BDRip от MediaClub

22 | 5

1.45 ГБ

В этой теме нет новых непрочитанных сообщений. Город Зеро (1988) BDRip-AVC от MediaClub

20 | 5

1.46 ГБ




Вы не можете начинать темы
Вы не можете отвечать на сообщения
Вы не можете редактировать свои сообщения
Вы не можете удалять свои сообщения
Вы не можете добавлять вложения

Перейти:  
Для Мосгорсуда, Роскомнадзора и рекламодателей: mosgorsud-torrent[собачка]yandex.ru
 Вход
ppkBB3cker v.2 © 2008-2014 @ PPK
[ Time : 0.051s | 16 Queries | GZIP : Off ]
CGP output time : 0.040s | 5 Queries | GZIP : Off

Торрент трекер RUTOR.IN, Не можете зайти на rutor.org? Какой новый адрес рутор? Какое зеркало рутор? Не работает rutor.org и зеркала? Тогда наш торрент специально для вас. Rutor.in неофициальное зеркало rutor. В случае если у Вас заблокирован rutor или вдруг Вы не можете на него зайти, то Вы без труда сможете скачать бесплатно и без рекламы последние новинки кино, игр, сериалов и прочего у нас, на Rutor.in. Не нужно использовать прокси, чтобы зайти на рутор, достаточно воспользоваться нашим ресурсом. Все новые фильмы, игры, сериалы, книги и музыка за 2013 и 2014 годы через торрент бесплатно. Скачивайте фильмы в хорошем качестве, игры для пк, xbox, playstation без регистрации. У нас вы найдете новые Зарубежные сериалы и Русские сериалы 2013, 2014, 2015 годов. Оставайтесь с нами, качайте любимые фильмы, игры, сериалы, книги и музыку.