img image001 image001 image001 image001 image001 image001 image001 image001 image001 image001 image001 image001 image001 image001 image001

Planets Sun Sun Sun
Статистика раздачи
Автор: PriZraK | Размер: 745.21 МБ | Добавлен: 31 дек 2015
Раздают: 93    Качают: 12
Скачать торрент
Скачать торрент
Описание торрента

СообщениеДобавлено: 31 дек 2015 


Информация о фильме
Название: Гость
Год выхода: 2013
Жанр: Триллер, драма, криминал
Режиссер: Игорь Копылов
В ролях: Александр Аравушкин, Александра Мареева (II), Илья Носков, Роман Агеев, Станислав Казаку, Наталья Высочанская, Олег Малышев, Дмитрий Лебедев

О фильме:
Сбежавшему из следственного изолятора рецидивисту Кольцову судьба неожиданно подбрасывает шанс. Случайный водитель, подвозивший Кольцова до вокзала, гибнет в перестрелке с полицией, спровоцированной опасным попутчиком. Перед этим водитель рассказывает ему о своей дочери Вере, которую он не видел с рождения и собирался навестить после двадцатипятилетней разлуки и смерти ее матери.



Страна: Россия
Студия: Триикс Медиа
Продолжительность: 01:30:00
Перевод: Не требуется

Файл
Кодек: XviD
Качество: HDTVRip
Видео: 656x368 (1.78:1), 25 fps, XviD build 73 ~1019 kbps avg, 0.17 bit/pixel
Звук: 48 kHz, MPEG Layer 3, 2 ch, ~128.00 kbps avg
Субтитры: Отсутствует
Семпл

General
Complete name : E:Изготовление риповGost.2013.HDTVRip.shkiper.avi
Format : AVI
Format/Info : Audio Video Interleave
File size : 745 MiB
Duration : 1h 30mn
Overall bit rate : 1 158 Kbps
Writing application : VirtualDubMod 1.5.10.3 | www.virtualdub-fr.org || (build 2550/release)
Writing library : VirtualDubMod build 2550/release

Video
ID : 0
Format : MPEG-4 Visual
Format profile : Advanced Simple@L5
Format settings, BVOP : 1
Format settings, QPel : No
Format settings, GMC : No warppoints
Format settings, Matrix : Custom
Codec ID : XVID
Codec ID/Hint : XviD
Duration : 1h 30mn
Bit rate : 1 020 Kbps
Width : 656 pixels
Height : 368 pixels
Display aspect ratio : 16:9
Frame rate : 25.000 fps
Color space : YUV
Chroma subsampling : 4:2:0
Bit depth : 8 bits
Scan type : Progressive
Compression mode : Lossy
Bits/(Pixel*Frame) : 0.169
Stream size : 657 MiB (88%)
Writing library : XviD 73

Audio
ID : 1
Format : MPEG Audio
Format version : Version 1
Format profile : Layer 3
Mode : Joint stereo
Mode extension : MS Stereo
Codec ID : 55
Codec ID/Hint : MP3
Duration : 1h 30mn
Bit rate mode : Constant
Bit rate : 128 Kbps
Channel(s) : 2 channels
Sampling rate : 48.0 KHz
Compression mode : Lossy
Stream size : 82.4 MiB (11%)
Alignment : Aligned on interleaves
Interleave, duration : 40 ms (1.00 video frame)
Interleave, preload duratio : 504 ms
Writing library : LAME3.99r
Encoding settings : -m j -V 4 -q 2 -lowpass 17 -b 128

Релиз от:



   Похожие торренты   Торрент   Размер 
В этой теме нет новых непрочитанных сообщений. Гость (2013) HDTVRip от MediaClub | КПК

141 | 12

408.11 МБ

В этой теме нет новых непрочитанных сообщений. Гость (2013) HDTVRip-AVC от Files-x

74 | 9

1.37 ГБ

В этой теме нет новых непрочитанных сообщений. Гость (2013) HDTVRip от Files-x

1018 | 57

1.37 ГБ

В этой теме нет новых непрочитанных сообщений. Гость (2013) HDTVRip 720p от MediaClub

163 | 17

2.43 ГБ

В этой теме нет новых непрочитанных сообщений. Жажда (2013) HDTVRip от Шкипер

136 | 8

745.64 МБ

В этой теме нет новых непрочитанных сообщений. Альпинисты (2013) HDTVRip от Шкипер

43 | 4

744.74 МБ

В этой теме нет новых непрочитанных сообщений. Отец поневоле (2013) HDTVRip от Шкипер

237 | 3

745.27 МБ




Вы не можете начинать темы
Вы не можете отвечать на сообщения
Вы не можете редактировать свои сообщения
Вы не можете удалять свои сообщения
Вы не можете добавлять вложения

Перейти:  
Для Мосгорсуда, Роскомнадзора и рекламодателей: mosgorsud-torrent[собачка]yandex.ru
 Вход
ppkBB3cker v.2 © 2008-2014 @ PPK
[ Time : 0.021s | 14 Queries | GZIP : Off ]

Торрент трекер RUTOR.IN, Не можете зайти на rutor.org? Какой новый адрес рутор? Какое зеркало рутор? Не работает rutor.org и зеркала? Тогда наш торрент специально для вас. Rutor.in неофициальное зеркало rutor. В случае если у Вас заблокирован rutor или вдруг Вы не можете на него зайти, то Вы без труда сможете скачать бесплатно и без рекламы последние новинки кино, игр, сериалов и прочего у нас, на Rutor.in. Не нужно использовать прокси, чтобы зайти на рутор, достаточно воспользоваться нашим ресурсом. Все новые фильмы, игры, сериалы, книги и музыка за 2013 и 2014 годы через торрент бесплатно. Скачивайте фильмы в хорошем качестве, игры для пк, xbox, playstation без регистрации. У нас вы найдете новые Зарубежные сериалы и Русские сериалы 2013, 2014, 2015 годов. Оставайтесь с нами, качайте любимые фильмы, игры, сериалы, книги и музыку.