img image001 image001 image001 image001 image001 image001 image001 image001 image001 image001 image001 image001 image001 image001 image001

Planets Sun Sun Sun
Статистика раздачи
Автор: PriZraK | Размер: 2.91 ГБ | Добавлен: 31 дек 2015
Раздают: 168    Качают: 20
Скачать торрент
Скачать торрент
Описание торрента

СообщениеДобавлено: 31 дек 2015 



Информация о фильме
Название: Я шагаю по Москве
Год выхода: 1963
Жанр: Комедия, мелодрама
Режиссер: Георгий Данелия
В ролях: Никита Михалков, Алексей Локтев, Галина Польских, Евгений Стеблов, Любовь Соколова, Ирина Титова, Ирина Мирошниченко, Владимир Басов ст., Ролан Быков, Лев Дуров, Арина Алейникова, Валентина Ананьина, Светлана Беседина, Вероника Васильева, Мария Виноградова, Н. Лихобабина, Евгения Мельникова, Анна Павлова, Алевтина Румянцева, Ирина Скобцева

О фильме:
Володя работает монтажником в Сибири, в Москве он проездом — его небольшой рассказ, опубликованный в журнале «Юность» вызвал интерес у писателя Воронина, пригласившего Володю на важный разговор. В метро он знакомится с Колей — молодым задорным пареньком, возвращающимся с ночной смены. Володя собирается остановиться у своих друзей, но не знает точно, где находится нужный переулок, Коля предлагает его проводить. На Чистопрудном бульваре Володю кусает оставленная без присмотра собака. Коля приглашает Володю домой, чтобы зашить порванные брюки, знакомит его с семьёй. Вскоре оказывается, что знакомые Володи уехали из Москвы на лето, Володя оставляет вещи у Коли и уходит по делам. Оставшись дома один, Коля надеется выспаться, но неожиданно к нему приходит друг Саша, которого забирают в армию. Саша просит Колю пойти с ним в военкомат, чтобы получит отсрочку от призыва в связи с тем, что Саша сегодня женится на Свете. После военкомата друзья идут в ГУМ, чтобы выбрать жениху новый пиджак. Там они встречают Володю, как раз купившего себе новый костюм, и Коля предлагает вместо пиджака купить невесте подарок. Они идут в магазин пластинок, где работает его знакомая Алёна…

Страна: СССР, Мосфильм
Продолжительность: 01:13:24
Перевод: не требуется

Файл
Кодек: x264
Качество: HDDVDRip 720p - Custom
Видео: MPEG-4 AVC, 4994 Mбит/с, 1280x550
Звук: AC3, 6 ch, 448 Кбит/с, AC3, 1 ch, 224 Кбит/с

raw [info]: 1280x550p 1:1 @ 25/1 fps (cfr)
x264 [info]: using SAR=1/1
x264 [info]: using cpu capabilities: MMX2 SSE2Fast SSSE3 SSE4.2 AVX
x264 [info]: profile High, level 4.1
x264 [info]: frame I:550 Avg QP:16.02 size:123077
x264 [info]: frame P:29662 Avg QP:18.89 size: 52155
x264 [info]: frame B:79912 Avg QP:21.66 size: 14205
===========================================================================================================
Общее
Уникальный идентификатор : 194091741923997039605687874594348072537 (0x9204B5B3AE70089084F614C9CCD5FE59)
Полное имя : D:Я шагаю по Москве_1963-HDDVDRip 720p.mkv
Формат : Matroska
Версия формата : Version 2
Размер файла : 2,91 Гбайт
Продолжительность : 1 ч. 13 м.
Общий поток : 5668 Кбит/сек
Дата кодирования : UTC 2015-12-29 12:16:54
Программа кодирования : mkvmerge v5.8.0 ('No Sleep / Pillow') built on Sep 2 2012 15:37:04
Библиотека кодирования : libebml v1.2.3 + libmatroska v1.3.0

Видео
Идентификатор : 1
Формат : AVC
Формат/Информация : Advanced Video Codec
Профиль формата : High@L4.1
Параметр CABAC формата : Да
Параметр ReFrames формата : 11 кадров
Идентификатор кодека : V_MPEG4/ISO/AVC
Продолжительность : 1 ч. 13 м.
Битрейт : 4994 Кбит/сек
Ширина : 1280 пикселей
Высота : 550 пикселей
Соотношение сторон : 2,35:1
Режим частоты кадров : Постоянный
Частота кадров : 25,000 кадров/сек
Цветовое пространство : YUV
Субдискретизация насыщенности : 4:2:0
Битовая глубина : 8 бит
Тип развёртки : Прогрессивная
Бит/(Пиксели*Кадры) : 0.284
Размер потока : 2,50 Гбайт (86%)
Библиотека кодирования : x264 core 148 r2638 7599210
Настройки программы : cabac=1 / ref=11 / deblock=1:-2:-2 / analyse=0x3:0x113 / me=umh / subme=10 / psy=1 / psy_rd=0.75:0.10 / mixed_ref=1 / me_range=32 / chroma_me=1 / trellis=2 / 8x8dct=1 / cqm=0 / deadzone=21,11 / fast_pskip=0 / chroma_qp_offset=-3 / threads=12 / lookahead_threads=2 / sliced_threads=0 / nr=0 / decimate=0 / interlaced=0 / bluray_compat=0 / constrained_intra=0 / bframes=8 / b_pyramid=2 / b_adapt=2 / b_bias=0 / direct=3 / weightb=1 / open_gop=0 / weightp=2 / keyint=250 / keyint_min=25 / scenecut=40 / intra_refresh=0 / rc_lookahead=40 / rc=2pass / mbtree=1 / bitrate=4994 / ratetol=1.0 / qcomp=0.70 / qpmin=0 / qpmax=39 / qpstep=4 / cplxblur=20.0 / qblur=0.5 / vbv_maxrate=50000 / vbv_bufsize=62500 / nal_hrd=none / filler=0 / ip_ratio=1.40 / aq=1:0.80
Язык : English
Default : Да
Forced : Нет
Цветовой диапазон : Limited
Основные цвета : BT.709
Характеристики трансфера : BT.709
Коэффициенты матрицы : BT.709

Аудио #1
Идентификатор : 2
Формат : AC-3
Формат/Информация : Audio Coding 3
Расширение режима : CM (complete main)
Параметр Endianness формата : Big
Идентификатор кодека : A_AC3
Продолжительность : 1 ч. 13 м.
Вид битрейта : Постоянный
Битрейт : 448 Кбит/сек
Каналы : 6 каналов
Расположение каналов : Front: L C R, Side: L R, LFE
Частота : 48,0 КГц
Метод сжатия : С потерями
Задержка видео : 80 мс.
Размер потока : 235 Мбайт (8%)
Язык : Russian
Default : Да
Forced : Нет

Аудио #2
Идентификатор : 3
Формат : AC-3
Формат/Информация : Audio Coding 3
Расширение режима : CM (complete main)
Параметр Endianness формата : Big
Идентификатор кодека : A_AC3
Продолжительность : 1 ч. 13 м.
Вид битрейта : Постоянный
Битрейт : 224 Кбит/сек
Каналы : 1 канал
Расположение каналов : Front: C
Частота : 48,0 КГц
Метод сжатия : С потерями
Задержка видео : 80 мс.
Размер потока : 118 Мбайт (4%)
Язык : Russian
Default : Нет
Forced : Нет

Релиз от:
Автор релиза:



   Похожие торренты   Торрент   Размер 
В этой теме нет новых непрочитанных сообщений. Я шагаю по Москве (1963) HDDVDRip от Шкипер

33 | 1

743.96 МБ

В этой теме нет новых непрочитанных сообщений. Я шагаю по Москве (1963) DVDrip от PlanetaUA

40 | 5

1.46 ГБ

В этой теме нет новых непрочитанных сообщений. Я шагаю по Москве (1963) DVDRip-AVC от Youtracker

249 | 9

1.46 ГБ

В этой теме нет новых непрочитанных сообщений. Я шагаю по Москве (1963) DVDRip от MediaClub | КПК

66 | 9

329.26 МБ

В этой теме нет новых непрочитанных сообщений. Я шагаю по Москве (1963) DVDRip от Youtracker

82 | 5

744.36 МБ

В этой теме нет новых непрочитанных сообщений. Я шагаю по Москве (1963) DVDRip от Youtracker

56 | 13

1.46 ГБ

В этой теме нет новых непрочитанных сообщений. Я шагаю по Москве (1963) DVD5 от Youtracker | Сжатый

0 | 4

4.36 ГБ




Вы не можете начинать темы
Вы не можете отвечать на сообщения
Вы не можете редактировать свои сообщения
Вы не можете удалять свои сообщения
Вы не можете добавлять вложения

Перейти:  
Для Мосгорсуда, Роскомнадзора и рекламодателей: mosgorsud-torrent[собачка]yandex.ru
 Вход
ppkBB3cker v.2 © 2008-2014 @ PPK
[ Time : 0.030s | 14 Queries | GZIP : Off ]

Торрент трекер RUTOR.IN, Не можете зайти на rutor.org? Какой новый адрес рутор? Какое зеркало рутор? Не работает rutor.org и зеркала? Тогда наш торрент специально для вас. Rutor.in неофициальное зеркало rutor. В случае если у Вас заблокирован rutor или вдруг Вы не можете на него зайти, то Вы без труда сможете скачать бесплатно и без рекламы последние новинки кино, игр, сериалов и прочего у нас, на Rutor.in. Не нужно использовать прокси, чтобы зайти на рутор, достаточно воспользоваться нашим ресурсом. Все новые фильмы, игры, сериалы, книги и музыка за 2013 и 2014 годы через торрент бесплатно. Скачивайте фильмы в хорошем качестве, игры для пк, xbox, playstation без регистрации. У нас вы найдете новые Зарубежные сериалы и Русские сериалы 2013, 2014, 2015 годов. Оставайтесь с нами, качайте любимые фильмы, игры, сериалы, книги и музыку.