img image001 image001 image001 image001 image001 image001 image001 image001 image001 image001 image001 image001 image001 image001 image001

Planets Sun Sun Sun
Статистика раздачи
Автор: Nickolas3434 | Размер: 1.46 ГБ | Добавлен: 01 янв 2016
Раздают: 1997    Качают: 51
Скачать торрент
Скачать торрент
Описание торрента

СообщениеДобавлено: 01 янв 2016 


Информация о фильме
Название: SOS, Дед Мороз или Все сбудется!
Год выпуска: 2015
Страна: Россия
Жанр: комедия, семейный

Язык: Русский [iTunes]
Продолжительность: 01:26:59

Режиссер: Арман Геворгян
В ролях: Михаил Беспалов (Мышкин), Софья Спектор (Света), Анатолий Белый (Николай), Алёна Бабенко (Марина), Дмитрий Назаров (Иван Васильевич), Андрей Бедняков (Гарик), Оксана Акиньшина (Ольга), Алексей Бардуков (Лёха), Полина Максимова (жена Скрябина), Сергей Рост (Скрябин), Дарья Мельникова (Лера), Анна Старшенбаум (Настя)


Описание:
Света отчаянно хочет, чтобы ее родители помирились. Она верит, что эту мечту обязательно исполнит Дед Мороз, только стоит найти его и попросить об этом. Как же кстати он встречается Свете как раз накануне Нового года. Только вот девочка приняла за Деда Мороза переодетого мошенника и обаятельного афериста Мышкина. Теперь эта парочка на пути к исполнению своих желаний вовлечет в круговорот новогодних приключений еще десяток ни в чем неповинных людей, у которых теперь тоже появится надежда встретить эту новогоднюю ночь счастливыми.

Рейтинг:


Качество: WEB-DLRip-AVC
Формат: MKV
Видео: AVC, 1024x428 (2.40:1), 2015 kbps, 25 fps, 0,184 bpp
Аудио: AC3 / 5.1 / 48 kHz / 384 kbps / 16 bit


Релиз от: by schultz
General
Unique ID : 230924194753457431184044615126989766595 (0xADBA61D4F86793D9959435D22C157FC3)
Complete name : D:downloadC0C.DED.M0P03.2015.WEB-DLRip-AVC by schultz R.G.Resident.mkv
Format : Matroska
Format version : Version 2
File size : 1.46 GiB
Duration : 1h 26mn
Overall bit rate : 2 400 Kbps
Encoded date : UTC 2015-12-31 15:14:50
Writing application : mkvmerge v6.1.0 ('Old Devil') built on Mar 4 2013 09:10:42
Writing library : libebml v1.3.0 + libmatroska v1.4.0

Video
ID : 1
Format : AVC
Format/Info : Advanced Video Codec
Format profile : High@L4.1
Format settings, CABAC : Yes
Format settings, ReFrames : 12 frames
Codec ID : V_MPEG4/ISO/AVC
Duration : 1h 26mn
Bit rate : 2 015 Kbps
Width : 1 024 pixels
Height : 428 pixels
Display aspect ratio : 2.40:1
Frame rate : 25.000 fps
Color space : YUV
Chroma subsampling : 4:2:0
Bit depth : 8 bits
Scan type : Progressive
Bits/(Pixel*Frame) : 0.184
Stream size : 1.20 GiB (82%)
Writing library : x264 core 130 r2273 b3065e6
Encoding settings : cabac=1 / ref=12 / deblock=1:-3:-3 / analyse=0x3:0x113 / me=umh / subme=11 / psy=1 / psy_rd=1.00:0.10 / mixed_ref=1 / me_range=48 / chroma_me=1 / trellis=2 / 8x8dct=1 / cqm=0 / deadzone=21,11 / fast_pskip=0 / chroma_qp_offset=-3 / threads=12 / lookahead_threads=3 / sliced_threads=0 / nr=0 / decimate=1 / interlaced=0 / bluray_compat=0 / constrained_intra=0 / bframes=13 / b_pyramid=2 / b_adapt=2 / b_bias=0 / direct=3 / weightb=1 / open_gop=0 / weightp=2 / keyint=250 / keyint_min=25 / scenecut=40 / intra_refresh=0 / rc_lookahead=40 / rc=2pass / mbtree=0 / bitrate=2015 / ratetol=1.0 / qcomp=0.60 / qpmin=0 / qpmax=69 / qpstep=4 / cplxblur=20.0 / qblur=0.5 / vbv_maxrate=14000 / vbv_bufsize=14000 / nal_hrd=none / ip_ratio=1.40 / pb_ratio=1.30 / aq=1:0.80
Default : Yes
Forced : No

Audio
ID : 2
Format : AC-3
Format/Info : Audio Coding 3
Mode extension : CM (complete main)
Codec ID : A_AC3
Duration : 1h 26mn
Bit rate mode : Constant
Bit rate : 384 Kbps
Channel(s) : 6 channels
Channel positions : Front: L C R, Side: L R, LFE
Sampling rate : 48.0 KHz
Bit depth : 16 bits
Compression mode : Lossy
Stream size : 239 MiB (16%)
Default : Yes
Forced : No





   Похожие торренты   Торрент   Размер 
В этой теме нет новых непрочитанных сообщений. SOS, Дед Мороз или Все сбудется! (2015) WEB-DLRip | КПК | iTunes

868 | 41

393.19 МБ

В этой теме нет новых непрочитанных сообщений. SOS, Дед Мороз или Все сбудется! (2015) WEB-DLRip | iTunes

12525 | 435

1.36 ГБ

В этой теме нет новых непрочитанных сообщений. SOS, Дед Мороз или Все сбудется! (2015) WEB-DLRip-AVC от ExKinoRay | iTunes Russia

13402 | 605

1.86 ГБ

В этой теме нет новых непрочитанных сообщений. SOS, Дед Мороз или Все сбудется! (2015) WEB-DL 1080p | iTunes

3174 | 87

3.27 ГБ

В этой теме нет новых непрочитанных сообщений. SOS, Дед Мороз или Все сбудется! (2015) WEB-DL 720p | iTunes

9045 | 306

2.69 ГБ

В этой теме нет новых непрочитанных сообщений. SOS, Дед Мороз или Все сбудется! (2015) WEB-DLRip от Шкипер

1730 | 113

746.39 МБ

В этой теме нет новых непрочитанных сообщений. Ой, мороз, мороз! (2005) DVDRip от ivandubskoj | Лицензия

225 | 7

745.86 МБ




Вы не можете начинать темы
Вы не можете отвечать на сообщения
Вы не можете редактировать свои сообщения
Вы не можете удалять свои сообщения
Вы не можете добавлять вложения

Перейти:  
Для Мосгорсуда, Роскомнадзора и рекламодателей: mosgorsud-torrent[собачка]yandex.ru
 Вход
ppkBB3cker v.2 © 2008-2014 @ PPK
[ Time : 0.035s | 14 Queries | GZIP : Off ]

Торрент трекер RUTOR.IN, Не можете зайти на rutor.org? Какой новый адрес рутор? Какое зеркало рутор? Не работает rutor.org и зеркала? Тогда наш торрент специально для вас. Rutor.in неофициальное зеркало rutor. В случае если у Вас заблокирован rutor или вдруг Вы не можете на него зайти, то Вы без труда сможете скачать бесплатно и без рекламы последние новинки кино, игр, сериалов и прочего у нас, на Rutor.in. Не нужно использовать прокси, чтобы зайти на рутор, достаточно воспользоваться нашим ресурсом. Все новые фильмы, игры, сериалы, книги и музыка за 2013 и 2014 годы через торрент бесплатно. Скачивайте фильмы в хорошем качестве, игры для пк, xbox, playstation без регистрации. У нас вы найдете новые Зарубежные сериалы и Русские сериалы 2013, 2014, 2015 годов. Оставайтесь с нами, качайте любимые фильмы, игры, сериалы, книги и музыку.