img image001 image001 image001 image001 image001 image001 image001 image001 image001 image001 image001 image001 image001 image001 image001

Planets Sun Sun Sun
Статистика раздачи
Автор: Nickolas3434 | Размер: 745.59 МБ | Добавлен: 11 янв 2016
Раздают: 60    Качают: 16
Скачать торрент
Скачать торрент
Описание торрента

СообщениеДобавлено: 11 янв 2016 

Страна: СССР
Производство: Киностудия им. Горького

Жанр: драма
Год выпуска: 1952
Продолжительность: 01:46:32

Перевод: Не требуется
Cубтитры: нет
Оригинальная аудиодорожка: русский

Режиссер: Сергей Герасимов

В ролях:
Тамара Макарова, Григорий Белов, Всеволод Санаев, Василий Капустин, Иван Кузнецов, Анатолий Дудоров, Александр Смирнов, Виктор Ключарев, Александра Панова, Инна Макарова, Олеся Иванова, Клавдия Хабарова, Александра Харитонова, Владимир Гуляев, Николай Сморчков...
Полный список актёров

Описание:
Выпускница медицинского института Татьяна Казакова приезжает по распределению в село Горячие Ключи и намерена доказать свою профпригодность маленькому (село то — в тридцати километрах от райцентра), но достаточно профессиональному коллективу больницы, которую возглавляет 70-летний доктор Арсеньев, острый ум и чрезмерная недоверчивость которого становятся основной причиной недолгого раздора между коллегами.





Источник: DVD9 R5
Качество видео: DVDRip
Формат видео: AVI

Видео: 576x432 (4:3), 25 fps, XviD ~ 841 kbps avg, 0.135 bit/pixel
Аудио: 48 kHz, MP3 2.0, 128 kbps

Раздача от:
Общее
Полное имя : E:Tracker2015Сельский врачSelskiy.vrach.1952.DVDRip-745_[New-team]_by_AVP_Studio.avi
Формат : AVI
Формат/Информация : Audio Video Interleave
Размер файла : 746 Мбайт
Продолжительность : 1 ч. 46 м.
Общий поток : 978 Кбит/сек
Программа кодирования : VirtualDubMod 1.5.10.3 | www.virtualdub-fr.org || (build 2550/release)
Библиотека кодирования : VirtualDubMod build 2550/release

Видео
Идентификатор : 0
Формат : MPEG-4 Visual
Профиль формата : Advanced Simple@L5
Параметр BVOP формата : 1
Параметр QPel формата : Нет
Параметр GMC формата : Без точки перехода
Параметр матрицы формата : Выборочная
Идентификатор кодека : XVID
Идентификатор кодека/Подсказка : XviD
Продолжительность : 1 ч. 46 м.
Битрейт : 841 Кбит/сек
Ширина : 576 пикселей
Высота : 432 пикселя
Соотношение сторон : 4:3
Частота кадров : 25,000 кадров/сек
Цветовое пространство : YUV
Субдискретизация насыщенности : 4:2:0
Битовая глубина : 8 бит
Тип развёртки : Прогрессивная
Метод сжатия : С потерями
Бит/(Пиксели*Кадры) : 0.135
Размер потока : 641 Мбайт (86%)
Библиотека кодирования : XviD 1.2.1 (UTC 2008-12-04)

Аудио
Идентификатор : 1
Формат : MPEG Audio
Версия формата : Version 1
Профиль формата : Layer 3
Идентификатор кодека : 55
Идентификатор кодека/Подсказка : MP3
Продолжительность : 1 ч. 46 м.
Вид битрейта : Постоянный
Битрейт : 128 Кбит/сек
Каналы : 2 канала
Частота : 48,0 КГц
Метод сжатия : С потерями
Размер потока : 97,5 Мбайт (13%)
Выравнивание : Соединение по промежуткам
Продолжительность промежутка : 40 мс. (1,00 видеокадр)
Время предзагрузки промежутка : 504 мс.
Библиотека кодирования : LAME3.99r
Настройки программы : -m s -V 4 -q 2 -lowpass 17 -b 128





   Похожие торренты   Торрент   Размер 
В этой теме нет новых непрочитанных сообщений. Сельский врач (1952) DVDRip-AVC от New-Team

135 | 25

1.46 ГБ

В этой теме нет новых непрочитанных сообщений. Сельский врач (1952) DVDRip от New-Team

87 | 8

1.46 ГБ

В этой теме нет новых непрочитанных сообщений. На дне (1952) DVDRip от New-Team

10 | 17

2.18 ГБ

В этой теме нет новых непрочитанных сообщений. На дне (1952) DVDRip-AVC от New-Team

90 | 12

2.18 ГБ

В этой теме нет новых непрочитанных сообщений. На дне (1952) DVDRip от New-Team

25 | 11

1.46 ГБ

В этой теме нет новых непрочитанных сообщений. Садко (1952) DVDRip от New-Team

34 | 9

1.46 ГБ

В этой теме нет новых непрочитанных сообщений. Снегурочка (1952) DVDRip-AVC от New-Team

159 | 14

744.52 МБ




Вы не можете начинать темы
Вы не можете отвечать на сообщения
Вы не можете редактировать свои сообщения
Вы не можете удалять свои сообщения
Вы не можете добавлять вложения

Перейти:  
Для Мосгорсуда, Роскомнадзора и рекламодателей: mosgorsud-torrent[собачка]yandex.ru
 Вход
ppkBB3cker v.2 © 2008-2014 @ PPK
[ Time : 0.664s | 15 Queries | GZIP : Off ]

Торрент трекер RUTOR.IN, Не можете зайти на rutor.org? Какой новый адрес рутор? Какое зеркало рутор? Не работает rutor.org и зеркала? Тогда наш торрент специально для вас. Rutor.in неофициальное зеркало rutor. В случае если у Вас заблокирован rutor или вдруг Вы не можете на него зайти, то Вы без труда сможете скачать бесплатно и без рекламы последние новинки кино, игр, сериалов и прочего у нас, на Rutor.in. Не нужно использовать прокси, чтобы зайти на рутор, достаточно воспользоваться нашим ресурсом. Все новые фильмы, игры, сериалы, книги и музыка за 2013 и 2014 годы через торрент бесплатно. Скачивайте фильмы в хорошем качестве, игры для пк, xbox, playstation без регистрации. У нас вы найдете новые Зарубежные сериалы и Русские сериалы 2013, 2014, 2015 годов. Оставайтесь с нами, качайте любимые фильмы, игры, сериалы, книги и музыку.