img image001 image001 image001 image001 image001 image001 image001 image001 image001 image001 image001 image001 image001 image001 image001

Planets Sun Sun Sun
Статистика раздачи
Автор: PriZraK | Размер: 1.87 ГБ | Добавлен: 14 янв 2016
Раздают: 100    Качают: 10
Скачать торрент
Скачать торрент
Описание торрента

СообщениеДобавлено: 14 янв 2016 



Информация о фильме
Название: Чистое небо
Год выхода: 1961
Жанр: Драма, военный
Режиссер: Григорий Чухрай
В ролях: Нина Дробышева, Евгений Урбанский, Наталья Кузьмина, Виталий Коняев, Георгий Куликов, Леонид Князев, Георгий Георгиу, Олег Табаков, Алик Крылов, Виталик Бондарев, Владимир Анисько, Тамара Носова, Константин Барташевич, Пётр Кирюткин, Николай Хрящиков

О фильме:
Летчик-испытатель Астахов, Герой Советского Союза, во время Великой Отечественной войны (1941-1945) попадает в плен. После войны вернувшегося Астахова исключают из партии, увольняют с работы, лишают правительственной награды. Долгие годы он не имеет возможности вернуться к любимой работе. Постепенно Астахов спивается, но любовь верной жены Саши спасает его и возвращает надежду на справедливость… В главной роли снимался крупный советский актер Евгений Урбанский, лицо которого стало символом эпохи 60-х...

Страна: СССР, Мосфильм
Продолжительность: 01:43:52
Перевод: не требуется

Файл
Кодек: x264
Качество: DVDRip-AVC
Видео: MPEG-4 AVC, 2002 Кбит/с, 700x476@700x536, 25.000 fps
Звук: AC3, 6 ch, 448 Кбит/с, AC3, 1 ch, 128 Кбит/с

Трансфер PAL>NTSC

raw [info]: 700x476p 8:9 @ 25/1 fps (cfr)
x264 [info]: using SAR=8/9
x264 [info]: using cpu capabilities: MMX2 SSE2Fast SSSE3 SSE4.2 AVX
x264 [info]: profile High, level 4.1
x264 [info]: frame I:815 Avg QP:16.04 size: 58267
x264 [info]: frame P:36450 Avg QP:19.71 size: 21827
x264 [info]: frame B:118543 Avg QP:21.66 size: 6046
=======================================================================================================
Общее
Уникальный идентификатор : 253021479259946026592401685985632862123 (0xBE5A2A12B5B3577BB43A107DB2663FAB)
Полное имя : D:Чистое небо_1961-DVDRip-AVC.mkv
Формат : Matroska
Версия формата : Version 2
Размер файла : 1,87 Гбайт
Продолжительность : 1 ч. 43 м.
Общий поток : 2580 Кбит/сек
Дата кодирования : UTC 2016-01-11 19:41:46
Программа кодирования : mkvmerge v5.8.0 ('No Sleep / Pillow') built on Sep 2 2012 15:37:04
Библиотека кодирования : libebml v1.2.3 + libmatroska v1.3.0

Видео
Идентификатор : 1
Формат : AVC
Формат/Информация : Advanced Video Codec
Профиль формата : High@L4.1
Параметр CABAC формата : Да
Параметр ReFrames формата : 16 кадров
Идентификатор кодека : V_MPEG4/ISO/AVC
Продолжительность : 1 ч. 43 м.
Битрейт : 2002 Кбит/сек
Ширина : 700 пикселей
Высота : 476 пикселей
Соотношение сторон : 4:3
Соотношение сторон в оригинале : 4:3
Режим частоты кадров : Постоянный
Частота кадров : 25,000 кадров/сек
Цветовое пространство : YUV
Субдискретизация насыщенности : 4:2:0
Битовая глубина : 8 бит
Тип развёртки : Прогрессивная
Бит/(Пиксели*Кадры) : 0.240
Размер потока : 1,42 Гбайт (76%)
Библиотека кодирования : x264 core 148 r2638 7599210
Настройки программы : cabac=1 / ref=16 / deblock=1:-2:-2 / analyse=0x3:0x133 / me=umh / subme=10 / psy=1 / psy_rd=1.05:0.07 / mixed_ref=1 / me_range=32 / chroma_me=1 / trellis=2 / 8x8dct=1 / cqm=0 / deadzone=21,11 / fast_pskip=0 / chroma_qp_offset=-3 / threads=12 / lookahead_threads=2 / sliced_threads=0 / nr=0 / decimate=0 / interlaced=0 / bluray_compat=0 / constrained_intra=0 / bframes=8 / b_pyramid=2 / b_adapt=2 / b_bias=0 / direct=3 / weightb=1 / open_gop=0 / weightp=2 / keyint=250 / keyint_min=25 / scenecut=40 / intra_refresh=0 / rc=2pass / mbtree=0 / bitrate=2002 / ratetol=1.0 / qcomp=0.60 / qpmin=0 / qpmax=39 / qpstep=4 / cplxblur=20.0 / qblur=0.5 / ip_ratio=1.40 / pb_ratio=1.30 / aq=1:1.00
Язык : English
Default : Да
Forced : Нет
Цветовой диапазон : Limited
Основные цвета : BT.601 NTSC
Характеристики трансфера : BT.601
Коэффициенты матрицы : BT.601

Аудио #1
Идентификатор : 2
Формат : AC-3
Формат/Информация : Audio Coding 3
Расширение режима : CM (complete main)
Параметр Endianness формата : Big
Идентификатор кодека : A_AC3
Продолжительность : 1 ч. 43 м.
Вид битрейта : Постоянный
Битрейт : 448 Кбит/сек
Каналы : 6 каналов
Расположение каналов : Front: L C R, Side: L R, LFE
Частота : 48,0 КГц
Метод сжатия : С потерями
Задержка видео : 33 мс.
Размер потока : 333 Мбайт (17%)
Язык : Russian
Default : Да
Forced : Нет

Аудио #2
Идентификатор : 3
Формат : AC-3
Формат/Информация : Audio Coding 3
Расширение режима : CM (complete main)
Параметр Endianness формата : Big
Идентификатор кодека : A_AC3
Продолжительность : 1 ч. 43 м.
Вид битрейта : Постоянный
Битрейт : 128 Кбит/сек
Каналы : 1 канал
Расположение каналов : Front: C
Частота : 48,0 КГц
Метод сжатия : С потерями
Задержка видео : 33 мс.
Размер потока : 95,1 Мбайт (5%)
Язык : Russian
Default : Нет
Forced : Нет

Релиз от:
Автор релиза:



   Похожие торренты   Торрент   Размер 
В этой теме нет новых непрочитанных сообщений. Чистое небо (1961) DVDRip

4 | 5

1.45 ГБ

В этой теме нет новых непрочитанных сообщений. Чистое небо (1961) DVDRip-AVC

376 | 32

2.14 ГБ

В этой теме нет новых непрочитанных сообщений. S.T.A.L.K.E.R.: Clear Sky / Чистое небо (2008) PC

866 | 94

4.2 ГБ

В этой теме нет новых непрочитанных сообщений. S.T.A.L.K.E.R.: Чистое Небо / Zet Zone (2010) PC

0 | 52

2.32 ГБ

В этой теме нет новых непрочитанных сообщений. S.T.A.L.K.E.R.: Чистое Небо - Old Story (2014) PC

2264 | 131

3.2 ГБ

В этой теме нет новых непрочитанных сообщений. S.T.A.L.K.E.R.: Чистое Небо - Arsenal Overhaul (2014) PC

2034 | 150

3.03 ГБ

В этой теме нет новых непрочитанных сообщений. S.T.A.L.K.E.R. Чистое Небо Кровь и пуля v1.2 (2010) PC

860 | 155

2.78 ГБ




Вы не можете начинать темы
Вы не можете отвечать на сообщения
Вы не можете редактировать свои сообщения
Вы не можете удалять свои сообщения
Вы не можете добавлять вложения

Перейти:  
Для Мосгорсуда, Роскомнадзора и рекламодателей: mosgorsud-torrent[собачка]yandex.ru
 Вход
ppkBB3cker v.2 © 2008-2014 @ PPK
[ Time : 0.022s | 14 Queries | GZIP : Off ]

Торрент трекер RUTOR.IN, Не можете зайти на rutor.org? Какой новый адрес рутор? Какое зеркало рутор? Не работает rutor.org и зеркала? Тогда наш торрент специально для вас. Rutor.in неофициальное зеркало rutor. В случае если у Вас заблокирован rutor или вдруг Вы не можете на него зайти, то Вы без труда сможете скачать бесплатно и без рекламы последние новинки кино, игр, сериалов и прочего у нас, на Rutor.in. Не нужно использовать прокси, чтобы зайти на рутор, достаточно воспользоваться нашим ресурсом. Все новые фильмы, игры, сериалы, книги и музыка за 2013 и 2014 годы через торрент бесплатно. Скачивайте фильмы в хорошем качестве, игры для пк, xbox, playstation без регистрации. У нас вы найдете новые Зарубежные сериалы и Русские сериалы 2013, 2014, 2015 годов. Оставайтесь с нами, качайте любимые фильмы, игры, сериалы, книги и музыку.