img image001 image001 image001 image001 image001 image001 image001 image001 image001 image001 image001 image001 image001 image001 image001

Planets Sun Sun Sun
Статистика раздачи
Автор: PriZraK | Размер: 2.18 ГБ | Добавлен: 14 янв 2016
Раздают: 12    Качают: 6
Скачать торрент
Скачать торрент
Описание торрента

СообщениеДобавлено: 14 янв 2016 

Страна: СССР
Производство: Мосфильм

Жанр: комедия
Год выпуска: 1952
Продолжительность: 02:31:17

Перевод: Не требуется
Cубтитры: нет
Оригинальная аудиодорожка: русский

Режиссер: Абрам Роом, Николай Горчаков

В ролях:
Михаил Яншин, Ольга Андровская, Владимир Ершов, Анатолий Кторов, Павел Массальский, Тамара Михеева, Мария Дурасова, Евдокия Алеева, Владимир Попов, Григорий Конский, Евгений Калужский, Александр Комиссаров, Алексей Жильцов, Василий Марков, Александр Карев, Леонид Еремеев, Максим Чернобровцев...
Полный список актёров

Описание:
Фильм-спектакль по одноименной комедии Ричарда Шеридана.
Постановка МХАТ имени М.Горького.
Фильм об интригах, замешанных на любви и ревности, о злых языках и о нравах, царящих в высшем свете в Англии XVIII века.
Специально для этого спектакля Ольга Андровская научилась играть на арфе, а Михаил Яншин - на флейте.





Источник: DVD5 R5
Качество видео: DVDRip
Формат видео: AVI

Видео: 688x512 (4:3), 25 fps, XviD ~ 1861 kbps avg, 0.211 bit/pixel
Аудио: 48 kHz, Dolby Digital AC3 2.0, 192 kbps

Раздача от:
Общее
Полное имя : E:Tracker2015Школа злословияShkola.zlosloviya.1952.DVDRip_[New-team]_by_AVP_Studio.avi
Формат : AVI
Формат/Информация : Audio Video Interleave
Профиль формата : OpenDML
Размер файла : 2,18 Гбайт
Продолжительность : 2 ч. 31 м.
Общий поток : 2065 Кбит/сек
Программа кодирования : VirtualDubMod 1.5.10.3 | www.virtualdub-fr.org || (build 2550/release)
Библиотека кодирования : VirtualDubMod build 2550/release

Видео
Идентификатор : 0
Формат : MPEG-4 Visual
Профиль формата : Advanced Simple@L5
Параметр BVOP формата : 1
Параметр QPel формата : Нет
Параметр GMC формата : Без точки перехода
Параметр матрицы формата : Выборочная
Идентификатор кодека : XVID
Идентификатор кодека/Подсказка : XviD
Продолжительность : 2 ч. 31 м.
Битрейт : 1861 Кбит/сек
Ширина : 688 пикселей
Высота : 512 пикселей
Соотношение сторон : 4:3
Частота кадров : 25,000 кадров/сек
Цветовое пространство : YUV
Субдискретизация насыщенности : 4:2:0
Битовая глубина : 8 бит
Тип развёртки : Прогрессивная
Метод сжатия : С потерями
Бит/(Пиксели*Кадры) : 0.211
Размер потока : 1,97 Гбайт (90%)
Библиотека кодирования : XviD 1.2.1 (UTC 2008-12-04)

Аудио
Идентификатор : 1
Формат : AC-3
Формат/Информация : Audio Coding 3
Расширение режима : CM (complete main)
Параметр Endianness формата : Big
Идентификатор кодека : 2000
Продолжительность : 2 ч. 31 м.
Вид битрейта : Постоянный
Битрейт : 192 Кбит/сек
Каналы : 2 канала
Расположение каналов : Front: L R
Частота : 48,0 КГц
Частота кадров : 31,250 кадров/сек (1536 spf)
Метод сжатия : С потерями
Размер потока : 208 Мбайт (9%)
Выравнивание : Разделение по промежуткам
Продолжительность промежутка : 40 мс. (1,00 видеокадр)
Время предзагрузки промежутка : 500 мс





   Похожие торренты   Торрент   Размер 
В этой теме нет новых непрочитанных сообщений. Школа злословия (1952) DVDRip-AVC от New-Team

153 | 11

2.18 ГБ

В этой теме нет новых непрочитанных сообщений. Школа злословия (1952) DVDRip от New-Team

82 | 20

1.1 ГБ

В этой теме нет новых непрочитанных сообщений. Ричард Бринсли Шеридан - Школа злословия (2008) MP3

3 | 3

236.04 МБ

В этой теме нет новых непрочитанных сообщений. Школа Злословия. Тина Канделаки [эфир от 06.03] (2012) SATRip by dimich

0 | 2

402.11 МБ

В этой теме нет новых непрочитанных сообщений. На дне (1952) DVDRip от New-Team

10 | 17

2.18 ГБ

В этой теме нет новых непрочитанных сообщений. На дне (1952) DVDRip от New-Team

25 | 11

1.46 ГБ

В этой теме нет новых непрочитанных сообщений. На дне (1952) DVDRip-AVC от New-Team

90 | 12

2.18 ГБ




Вы не можете начинать темы
Вы не можете отвечать на сообщения
Вы не можете редактировать свои сообщения
Вы не можете удалять свои сообщения
Вы не можете добавлять вложения

Перейти:  
Для Мосгорсуда, Роскомнадзора и рекламодателей: mosgorsud-torrent[собачка]yandex.ru
 Вход
ppkBB3cker v.2 © 2008-2014 @ PPK
[ Time : 0.021s | 17 Queries | GZIP : On ]

Торрент трекер RUTOR.IN, Не можете зайти на rutor.org? Какой новый адрес рутор? Какое зеркало рутор? Не работает rutor.org и зеркала? Тогда наш торрент специально для вас. Rutor.in неофициальное зеркало rutor. В случае если у Вас заблокирован rutor или вдруг Вы не можете на него зайти, то Вы без труда сможете скачать бесплатно и без рекламы последние новинки кино, игр, сериалов и прочего у нас, на Rutor.in. Не нужно использовать прокси, чтобы зайти на рутор, достаточно воспользоваться нашим ресурсом. Все новые фильмы, игры, сериалы, книги и музыка за 2013 и 2014 годы через торрент бесплатно. Скачивайте фильмы в хорошем качестве, игры для пк, xbox, playstation без регистрации. У нас вы найдете новые Зарубежные сериалы и Русские сериалы 2013, 2014, 2015 годов. Оставайтесь с нами, качайте любимые фильмы, игры, сериалы, книги и музыку.