img image001 image001 image001 image001 image001 image001 image001 image001 image001 image001 image001 image001 image001 image001 image001

Planets Sun Sun Sun
Статистика раздачи
Автор: PriZraK | Размер: 1.1 ГБ | Добавлен: 14 янв 2016
Раздают: 82    Качают: 20
Скачать торрент
Скачать торрент
Описание торрента

СообщениеДобавлено: 14 янв 2016 

Страна: СССР
Производство: Мосфильм

Жанр: комедия
Год выпуска: 1952
Продолжительность: 02:31:17

Перевод: Не требуется
Cубтитры: нет
Оригинальная аудиодорожка: русский

Режиссер: Абрам Роом, Николай Горчаков

В ролях:
Михаил Яншин, Ольга Андровская, Владимир Ершов, Анатолий Кторов, Павел Массальский, Тамара Михеева, Мария Дурасова, Евдокия Алеева, Владимир Попов, Григорий Конский, Евгений Калужский, Александр Комиссаров, Алексей Жильцов, Василий Марков, Александр Карев, Леонид Еремеев, Максим Чернобровцев...
Полный список актёров

Описание:
Фильм-спектакль по одноименной комедии Ричарда Шеридана.
Постановка МХАТ имени М.Горького.
Фильм об интригах, замешанных на любви и ревности, о злых языках и о нравах, царящих в высшем свете в Англии XVIII века.
Специально для этого спектакля Ольга Андровская научилась играть на арфе, а Михаил Яншин - на флейте.





Источник: DVD5 R5
Качество видео: DVDRip
Формат видео: AVI

Видео: 576x432 (4:3), 25 fps, XviD ~ 904 kbps avg, 0.145 bit/pixel
Аудио: 48 kHz, MP3 2.0, 128 kbps

Раздача от:
Общее
Полное имя : Shkola.zlosloviya.1952.DVDRip-1.09_[New-team]_by_AVP_Studio.avi
Формат : AVI
Формат/Информация : Audio Video Interleave
Размер файла : 1,10 Гбайт
Продолжительность : 2 ч. 31 м.
Общий поток : 1042 Кбит/сек
Программа кодирования : VirtualDubMod 1.5.10.3 | www.virtualdub-fr.org || (build 2550/release)
Библиотека кодирования : VirtualDubMod build 2550/release

Видео
Идентификатор : 0
Формат : MPEG-4 Visual
Профиль формата : Advanced Simple@L5
Параметр BVOP формата : 1
Параметр QPel формата : Нет
Параметр GMC формата : Без точки перехода
Параметр матрицы формата : Выборочная
Идентификатор кодека : XVID
Идентификатор кодека/Подсказка : XviD
Продолжительность : 2 ч. 31 м.
Битрейт : 904 Кбит/сек
Ширина : 576 пикселей
Высота : 432 пикселя
Соотношение сторон : 4:3
Частота кадров : 25,000 кадров/сек
Цветовое пространство : YUV
Субдискретизация насыщенности : 4:2:0
Битовая глубина : 8 бит
Тип развёртки : Прогрессивная
Метод сжатия : С потерями
Бит/(Пиксели*Кадры) : 0.145
Размер потока : 978 Мбайт (87%)
Библиотека кодирования : XviD 1.2.1 (UTC 2008-12-04)

Аудио
Идентификатор : 1
Формат : MPEG Audio
Версия формата : Version 1
Профиль формата : Layer 3
Идентификатор кодека : 55
Идентификатор кодека/Подсказка : MP3
Продолжительность : 2 ч. 31 м.
Вид битрейта : Постоянный
Битрейт : 128 Кбит/сек
Каналы : 2 канала
Частота : 48,0 КГц
Метод сжатия : С потерями
Размер потока : 139 Мбайт (12%)
Выравнивание : Соединение по промежуткам
Продолжительность промежутка : 40 мс. (1,00 видеокадр)
Время предзагрузки промежутка : 504 мс.
Библиотека кодирования : LAME3.99r
Настройки программы : -m s -V 4 -q 2 -lowpass 17 -b 128





   Похожие торренты   Торрент   Размер 
В этой теме нет новых непрочитанных сообщений. Школа злословия (1952) DVDRip от New-Team

12 | 6

2.18 ГБ

В этой теме нет новых непрочитанных сообщений. Школа злословия (1952) DVDRip-AVC от New-Team

153 | 11

2.18 ГБ

В этой теме нет новых непрочитанных сообщений. Ричард Бринсли Шеридан - Школа злословия (2008) MP3

3 | 3

236.04 МБ

В этой теме нет новых непрочитанных сообщений. Школа Злословия. Тина Канделаки [эфир от 06.03] (2012) SATRip by dimich

0 | 2

402.11 МБ

В этой теме нет новых непрочитанных сообщений. На дне (1952) DVDRip от New-Team

25 | 11

1.46 ГБ

В этой теме нет новых непрочитанных сообщений. На дне (1952) DVDRip от New-Team

10 | 17

2.18 ГБ

В этой теме нет новых непрочитанных сообщений. На дне (1952) DVDRip-AVC от New-Team

90 | 12

2.18 ГБ




Вы не можете начинать темы
Вы не можете отвечать на сообщения
Вы не можете редактировать свои сообщения
Вы не можете удалять свои сообщения
Вы не можете добавлять вложения

Перейти:  
Для Мосгорсуда, Роскомнадзора и рекламодателей: mosgorsud-torrent[собачка]yandex.ru
 Вход
ppkBB3cker v.2 © 2008-2014 @ PPK
[ Time : 0.041s | 16 Queries | GZIP : Off ]

Торрент трекер RUTOR.IN, Не можете зайти на rutor.org? Какой новый адрес рутор? Какое зеркало рутор? Не работает rutor.org и зеркала? Тогда наш торрент специально для вас. Rutor.in неофициальное зеркало rutor. В случае если у Вас заблокирован rutor или вдруг Вы не можете на него зайти, то Вы без труда сможете скачать бесплатно и без рекламы последние новинки кино, игр, сериалов и прочего у нас, на Rutor.in. Не нужно использовать прокси, чтобы зайти на рутор, достаточно воспользоваться нашим ресурсом. Все новые фильмы, игры, сериалы, книги и музыка за 2013 и 2014 годы через торрент бесплатно. Скачивайте фильмы в хорошем качестве, игры для пк, xbox, playstation без регистрации. У нас вы найдете новые Зарубежные сериалы и Русские сериалы 2013, 2014, 2015 годов. Оставайтесь с нами, качайте любимые фильмы, игры, сериалы, книги и музыку.