img image001 image001 image001 image001 image001 image001 image001 image001 image001 image001 image001 image001 image001 image001 image001

Planets Sun Sun Sun
Статистика раздачи
Автор: PriZraK | Размер: 1.46 ГБ | Добавлен: 14 янв 2016
Раздают: 217    Качают: 14
Скачать торрент
Скачать торрент
Описание торрента

СообщениеДобавлено: 14 янв 2016 

Страна: СССР
Производство: К/ст им.Горького

Жанр: драма
Год выпуска: 1952
Продолжительность: 02:49:32 (01:37:50 + 01:11:42)

Перевод: Не требуется
Cубтитры: нет
Оригинальная аудиодорожка: русский

Режиссер: Анатолий Дорменко, Владимир Сухобоков

В ролях:
Михаил Царёв, Евдокия Турчанинова, Владимир Владиславский, Елена Шатрова, Игорь Ильинский, Николай Рыжов, Надежда Борская, Элла Далматова, Иван Верейский, Иван Лагутин, Вера Пашенная, Валентина Орлова, Раиса Рейзен (Климова), Н. Синякова, Сергей Калабин, Владимир Вилль, Олег Федоровский...
Полный список актёров

Описание:
Фильм-cпектакль Государственного Академического Малого театра по одноименной пьесе Александра Николаевича Островского.
Молодой человек из небогатой семьи Егор Дмитриевич Глумов, побуждаемый честолюбием, хочет сделать карьеру. Он ловко льстит, лицемерит, угодничает, умело пользуясь слабостями своих покровителей, а втайне высмеивает их тупость и пошлость в своем дневнике. Постепенно Глумов втирается в доверие к своему богатому родственнику Нилу Федосеевичу Мамаеву и его жене Клеопатре Львовне. Мамаевы знакомят Глумова с влиятельными людьми Крутицким и Городулиным. Легко завоевав их расположение, Глумов попадает в дом богатой московской барыни Турусиной в качестве претендента на руку ее племянницы. Он готов пойти на все, чтобы ускорить эту выгодную свадьбу...





Источник: DVD9 R5
Качество видео: DVDRip
Формат видео: AVI

Видео: 640x480 (4:3), 25 fps, XviD ~ 1094 kbps avg, 0.142 bit/pixel
Аудио: 48 kHz, MP3 2.0, 128 kbps

Раздача от:
Общее
Полное имя : Na.vsyakogo.mudreca.dovolno.prostoty.1952.DVDRip-1.46_[New-team]_by_AVP_Studio1.avi
Формат : AVI
Формат/Информация : Audio Video Interleave
Размер файла : 862 Мбайт
Продолжительность : 1 ч. 37 м.
Общий поток : 1231 Кбит/сек
Программа кодирования : VirtualDubMod 1.5.10.3 | www.virtualdub-fr.org || (build 2550/release)
Библиотека кодирования : VirtualDubMod build 2550/release

Видео
Идентификатор : 0
Формат : MPEG-4 Visual
Профиль формата : Advanced Simple@L5
Параметр BVOP формата : 1
Параметр QPel формата : Нет
Параметр GMC формата : Без точки перехода
Параметр матрицы формата : Выборочная
Идентификатор кодека : XVID
Идентификатор кодека/Подсказка : XviD
Продолжительность : 1 ч. 37 м.
Битрейт : 1094 Кбит/сек
Ширина : 640 пикселей
Высота : 480 пикселей
Соотношение сторон : 4:3
Частота кадров : 25,000 кадров/сек
Цветовое пространство : YUV
Субдискретизация насыщенности : 4:2:0
Битовая глубина : 8 бит
Тип развёртки : Прогрессивная
Метод сжатия : С потерями
Бит/(Пиксели*Кадры) : 0.142
Размер потока : 765 Мбайт (89%)
Библиотека кодирования : XviD 1.2.1 (UTC 2008-12-04)

Аудио
Идентификатор : 1
Формат : MPEG Audio
Версия формата : Version 1
Профиль формата : Layer 3
Идентификатор кодека : 55
Идентификатор кодека/Подсказка : MP3
Продолжительность : 1 ч. 37 м.
Вид битрейта : Постоянный
Битрейт : 128 Кбит/сек
Каналы : 2 канала
Частота : 48,0 КГц
Метод сжатия : С потерями
Размер потока : 89,6 Мбайт (10%)
Выравнивание : Соединение по промежуткам
Продолжительность промежутка : 40 мс. (1,00 видеокадр)
Время предзагрузки промежутка : 504 мс.
Библиотека кодирования : LAME3.99r
Настройки программы : -m s -V 4 -q 2 -lowpass 17 -b 128





   Похожие торренты   Торрент   Размер 
В этой теме нет новых непрочитанных сообщений. На всякого мудреца довольно простоты (1952) DVDRip от New-Team

27 | 7

2.18 ГБ

В этой теме нет новых непрочитанных сообщений. На всякого мудреца довольно простоты (1952) DVDRip-AVC от New-Team

42 | 6

2.18 ГБ

В этой теме нет новых непрочитанных сообщений. На дне (1952) DVDRip-AVC от New-Team

90 | 12

2.18 ГБ

В этой теме нет новых непрочитанных сообщений. На дне (1952) DVDRip от New-Team

25 | 11

1.46 ГБ

В этой теме нет новых непрочитанных сообщений. На дне (1952) DVDRip от New-Team

10 | 17

2.18 ГБ

В этой теме нет новых непрочитанных сообщений. Садко (1952) DVDRip-AVC от New-Team

460 | 41

1.46 ГБ

В этой теме нет новых непрочитанных сообщений. Разлом (1952) DVDRip от New-Team

8 | 6

744.48 МБ




Вы не можете начинать темы
Вы не можете отвечать на сообщения
Вы не можете редактировать свои сообщения
Вы не можете удалять свои сообщения
Вы не можете добавлять вложения

Перейти:  
Для Мосгорсуда, Роскомнадзора и рекламодателей: mosgorsud-torrent[собачка]yandex.ru
 Вход
ppkBB3cker v.2 © 2008-2014 @ PPK
[ Time : 0.029s | 15 Queries | GZIP : Off ]

Торрент трекер RUTOR.IN, Не можете зайти на rutor.org? Какой новый адрес рутор? Какое зеркало рутор? Не работает rutor.org и зеркала? Тогда наш торрент специально для вас. Rutor.in неофициальное зеркало rutor. В случае если у Вас заблокирован rutor или вдруг Вы не можете на него зайти, то Вы без труда сможете скачать бесплатно и без рекламы последние новинки кино, игр, сериалов и прочего у нас, на Rutor.in. Не нужно использовать прокси, чтобы зайти на рутор, достаточно воспользоваться нашим ресурсом. Все новые фильмы, игры, сериалы, книги и музыка за 2013 и 2014 годы через торрент бесплатно. Скачивайте фильмы в хорошем качестве, игры для пк, xbox, playstation без регистрации. У нас вы найдете новые Зарубежные сериалы и Русские сериалы 2013, 2014, 2015 годов. Оставайтесь с нами, качайте любимые фильмы, игры, сериалы, книги и музыку.