img image001 image001 image001 image001 image001 image001 image001 image001 image001 image001 image001 image001 image001 image001 image001

Planets Sun Sun Sun
Статистика раздачи
Автор: PriZraK | Размер: 1.45 ГБ | Добавлен: 14 янв 2016
Раздают: 182    Качают: 31
Скачать торрент
Скачать торрент
Описание торрента

СообщениеДобавлено: 14 янв 2016 



Информация о фильме
Название: Старый Новый год
Год выхода: 1980
Жанр: Комедия, драма
Режиссёр: Наум Ардашников, Олег Ефремов
В ролях: Вячеслав Невинный, Евгений Евстигнеев, Александр Калягин, Борис Щербаков, Пётр Щербаков, Ирина Мирошниченко, Анастасия Немоляева, Валентин Карманов, Виктор Петров, Георгий Бурков, Валерия Дементьева, Татьяна Забродина, Ксения Минина, Владимир Трошин, Лилия Журкина (Евстигнеева), Марина Добровольская, Вячеслав Степанов, Евгения Ханаева, Наталья Назарова

О фильме: В недавно заселенном доме идет новогодняя гульба. Две соседствующие семьи имеют, при всех различиях одно сходство: в обеих есть недовольный жизнью муж. Вскоре оба неудачника, хлопнув дверьми, покидают свои новые квартиры – чтобы вскоре найти успокоение в тесной мужской компании...

Доп. информация: Исходник - DVB (картинка лучше, чем на DVD) - http://screenshotcomparison.com/comparison/2383



Страна: СССР
Студия: Мосфильм
Продолжительность: 02:12:38
Перевод: Не требуется (оригинальный)

Файл
Формат: avi
Качество: SATRip (DVB)
Видео: XviD, 704х528, 25fps, 1428kbps
Аудио: MPEG Layer 3, 2ch, 48000Hz, 128kbps



General
Complete name : Staryi.Novyi.God.1980.O.SATRip.1400.CurHaJI.avi
Format : AVI
Format/Info : Audio Video Interleave
File size : 1.45 GiB
Duration : 2h 12mn
Overall bit rate : 1 565 Kbps
Movie name : Staryi.Novyi.God.1980.O.SATRip.1400.CurHaJI
Writing application : Lavf53.13.0
Writing library : VirtualDub build 35491/release

Video
ID : 0
Format : MPEG-4 Visual
Format profile : Advanced Simple@L5
Format settings, BVOP : 2
Format settings, QPel : No
Format settings, GMC : No warppoints
Format settings, Matrix : Custom
Codec ID : XVID
Codec ID/Hint : XviD
Duration : 2h 12mn
Bit rate : 1 428 Kbps
Width : 704 pixels
Height : 528 pixels
Display aspect ratio : 4:3
Frame rate : 25.000 fps
Color space : YUV
Chroma subsampling : 4:2:0
Bit depth : 8 bits
Scan type : Progressive
Compression mode : Lossy
Bits/(Pixel*Frame) : 0.154
Stream size : 1.32 GiB (91%)
Writing library : XviD 64

Audio
ID : 1
Format : MPEG Audio
Format version : Version 1
Format profile : Layer 3
Codec ID : 55
Codec ID/Hint : MP3
Duration : 2h 12mn
Bit rate mode : Constant
Bit rate : 128 Kbps
Channel(s) : 2 channels
Sampling rate : 48.0 KHz
Compression mode : Lossy
Stream size : 121 MiB (8%)
Alignment : Split accross interleaves
Interleave, duration : 40 ms (1.00 video frame)
Interleave, preload duration : 500 ms
Writing library : L3.99r
Encoding settings : -m s -V 4 -q 2 -lowpass 17 -b 128



Релиз от:



   Похожие торренты   Торрент   Размер 
В этой теме нет новых непрочитанных сообщений. XXII Летние Олимпийские Игры. 1980 год. Москва. Церемония открытия (1980) SATRip

58 | 76

1.46 ГБ

В этой теме нет новых непрочитанных сообщений. XXII Летние Олимпийские Игры. 1980 год. Москва. Церемония закрытия (1980) SATRip

31 | 8

1.05 ГБ

В этой теме нет новых непрочитанных сообщений. Красный райдинг 1980 / Red Riding 1980 (2009) BDRip 720p от Brazzass

130 | 61

4.02 ГБ

В этой теме нет новых непрочитанных сообщений. Камила (1980) SATRip

3 | 14

1.37 ГБ

В этой теме нет новых непрочитанных сообщений. Ключ (1980) SATRip

24 | 4

1.57 ГБ

В этой теме нет новых непрочитанных сообщений. Красный райдинг: 1980 / Red Riding: 1980 (2009) PDTVRip

0 | 2

780.1 МБ

В этой теме нет новых непрочитанных сообщений. Ангар 18 / Hangar 18 (1980) SATRip-AVC

24 | 4

703.7 МБ




Вы не можете начинать темы
Вы не можете отвечать на сообщения
Вы не можете редактировать свои сообщения
Вы не можете удалять свои сообщения
Вы не можете добавлять вложения

Перейти:  
Для Мосгорсуда, Роскомнадзора и рекламодателей: mosgorsud-torrent[собачка]yandex.ru
 Вход
ppkBB3cker v.2 © 2008-2014 @ PPK
[ Time : 0.033s | 14 Queries | GZIP : On ]

Торрент трекер RUTOR.IN, Не можете зайти на rutor.org? Какой новый адрес рутор? Какое зеркало рутор? Не работает rutor.org и зеркала? Тогда наш торрент специально для вас. Rutor.in неофициальное зеркало rutor. В случае если у Вас заблокирован rutor или вдруг Вы не можете на него зайти, то Вы без труда сможете скачать бесплатно и без рекламы последние новинки кино, игр, сериалов и прочего у нас, на Rutor.in. Не нужно использовать прокси, чтобы зайти на рутор, достаточно воспользоваться нашим ресурсом. Все новые фильмы, игры, сериалы, книги и музыка за 2013 и 2014 годы через торрент бесплатно. Скачивайте фильмы в хорошем качестве, игры для пк, xbox, playstation без регистрации. У нас вы найдете новые Зарубежные сериалы и Русские сериалы 2013, 2014, 2015 годов. Оставайтесь с нами, качайте любимые фильмы, игры, сериалы, книги и музыку.