img image001 image001 image001 image001 image001 image001 image001 image001 image001 image001 image001 image001 image001 image001 image001

Planets Sun Sun Sun
Статистика раздачи
Автор: Nickolas3434 | Размер: 742.12 МБ | Добавлен: 16 янв 2016
Раздают: 443    Качают: 22
Скачать торрент
Скачать торрент
Описание торрента

СообщениеДобавлено: 16 янв 2016 


Информация о фильме
Название: Новогодние приключения Маши и Вити
Год выхода: 1975
Жанр: Фэнтези, семейный, музыка, сказка
Режиссер: Геннадий Казанский, Игорь Усов
В ролях: Наташа Симонова — Маша, Юра Нахратов — Витя, Игорь Ефимов — Дед Мороз, Ирина Борисова — Снегурочка, Георгий Штиль — Леший, Вера Титова — Печка, Михаил Боярский — Кот Матвей, Николай Боярский — Кащей Бессмертный, Валентина Кособуцкая — Баба-Яга, Любовь Виролайнен — Яблоня, Борис Смолкин — Лесовичок
О фильме:
Они такие разные — младшеклассники Витя, верящий только в науку и технику, и Маша, верящая в чудеса. В школе, во время оформления зала к Новому году, Маша волшебным заклинанием оживляет скульптуру Деда Мороза, который оправляет их с Витей в Сказку, на помощь Снегурочке: Снегурочку похитил Кащей, чтобы устроить Новый Год для своей нечисти.

Страна: СССР
Студия: «Ленфильм», Творческое объединение телевизионных фильмов
Продолжительность: 01:06:37
Перевод: Не требуется
Файл
Кодек: XviD
Качество: DVDRip
Видео: 640x480 (1.33:1), 25 fps, XviD build 73 ~1419 kbps avg, 0.185 bit/pixel
Звук: 48 kHz, MPEG Layer 3, 2 ch, ~128.00 kbps avg
Субтитры: Отсутствует
Семпл
Общее
Полное имя : D:Изготовление рипаMasha & Vitya_dvdrip by shkiper.avi
Формат : AVI
Формат/Информация : Audio Video Interleave
Размер файла : 742 Мбайт
Продолжительность : 1 ч. 6 м.
Общий поток : 1557 Кбит/сек
Программа кодирования : VirtualDubMod 1.5.10.3 | www.virtualdub-fr.org || (build 2550/release)
Библиотека кодирования : VirtualDubMod build 2550/release
Видео
Идентификатор : 0
Формат : MPEG-4 Visual
Профиль формата : Advanced Simple@L5
Параметр BVOP формата : 1
Параметр QPel формата : Нет
Параметр GMC формата : Без точки перехода
Параметр матрицы формата : Выборочная
Идентификатор кодека : XVID
Идентификатор кодека/Подсказка : XviD
Продолжительность : 1 ч. 6 м.
Битрейт : 1420 Кбит/сек
Ширина : 640 пикселей
Высота : 480 пикселей
Соотношение сторон : 4:3
Частота кадров : 25,000 кадров/сек
Цветовое пространство : YUV
Субдискретизация насыщенности : 4:2:0
Битовая глубина : 8 бит
Тип развёртки : Прогрессивная
Метод сжатия : С потерями
Бит/(Пиксели*Кадры) : 0.185
Размер потока : 676 Мбайт (91%)
Библиотека кодирования : XviD 73
Аудио
Идентификатор : 1
Формат : MPEG Audio
Версия формата : Version 1
Профиль формата : Layer 3
Режим : Joint stereo
Расширение режима : MS Stereo
Идентификатор кодека : 55
Идентификатор кодека/Подсказка : MP3
Продолжительность : 1 ч. 6 м.
Вид битрейта : Постоянный
Битрейт : 128 Кбит/сек
Каналы : 2 канала
Частота : 48,0 КГц
Метод сжатия : С потерями
Размер потока : 61,0 Мбайт (8%)
Выравнивание : Соединение по промежуткам
Продолжительность промежутка : 40 мс. (1,00 видеокадр)
Время предзагрузки промежутка : 504 мс.
Библиотека кодирования : LAME3.99r
Настройки программы : -m j -V 4 -q 2 -lowpass 17 -b 128

Релиз от:



   Похожие торренты   Торрент   Размер 
В этой теме нет новых непрочитанных сообщений. Новогодние приключения Маши и Вити (1975) DVDRip

509 | 31

1.37 ГБ

В этой теме нет новых непрочитанных сообщений. Новогодние приключения Маши и Вити (1975) DVDRip

216 | 7

699.6 МБ

В этой теме нет новых непрочитанных сообщений. Новогодние приключения Маши и Вити (1975) DVDRip

201 | 12

1.09 ГБ

В этой теме нет новых непрочитанных сообщений. Новогодние приключения Маши и Вити (1975) DVDRip-AVC от Youtracker

83 | 5

744.11 МБ

В этой теме нет новых непрочитанных сообщений. Новогодние приключения Маши и Вити (1975) DVD5 от Youtracker

217 | 9

4.03 ГБ

В этой теме нет новых непрочитанных сообщений. Приключения Маши в Стране Чудес / Yugo and Lala (2012) DVDRip от New-Team | D | лицензия

35 | 73

1.46 ГБ

В этой теме нет новых непрочитанных сообщений. Приключения Маши в Стране Чудес / Yugo and Lala (2012) DVDRip-AVC от New-Team | D | лицензия

121 | 37

1.46 ГБ




Вы не можете начинать темы
Вы не можете отвечать на сообщения
Вы не можете редактировать свои сообщения
Вы не можете удалять свои сообщения
Вы не можете добавлять вложения

Перейти:  
Для Мосгорсуда, Роскомнадзора и рекламодателей: mosgorsud-torrent[собачка]yandex.ru
 Вход
ppkBB3cker v.2 © 2008-2014 @ PPK
[ Time : 0.020s | 14 Queries | GZIP : On ]

Торрент трекер RUTOR.IN, Не можете зайти на rutor.org? Какой новый адрес рутор? Какое зеркало рутор? Не работает rutor.org и зеркала? Тогда наш торрент специально для вас. Rutor.in неофициальное зеркало rutor. В случае если у Вас заблокирован rutor или вдруг Вы не можете на него зайти, то Вы без труда сможете скачать бесплатно и без рекламы последние новинки кино, игр, сериалов и прочего у нас, на Rutor.in. Не нужно использовать прокси, чтобы зайти на рутор, достаточно воспользоваться нашим ресурсом. Все новые фильмы, игры, сериалы, книги и музыка за 2013 и 2014 годы через торрент бесплатно. Скачивайте фильмы в хорошем качестве, игры для пк, xbox, playstation без регистрации. У нас вы найдете новые Зарубежные сериалы и Русские сериалы 2013, 2014, 2015 годов. Оставайтесь с нами, качайте любимые фильмы, игры, сериалы, книги и музыку.