img image001 image001 image001 image001 image001 image001 image001 image001 image001 image001 image001 image001 image001 image001 image001

Planets Sun Sun Sun
Статистика раздачи
Автор: Nickolas3434 | Размер: 1.45 ГБ | Добавлен: 17 янв 2016
Раздают: 50    Качают: 23
Скачать торрент
Скачать торрент
Описание торрента

СообщениеДобавлено: 17 янв 2016 


Информация о фильме
Название: Парень из нашего города
Год выхода: 1942
Жанр: Драма, военный, экранизация
Режиссер: Александр Столпер, Борис Иванов
В ролях: Николай Крючков, Николай Боголюбов, Лидия Смирнова, Владимир Канделаки, Николай Мордвинов, Нина Зорская, Валерий Медведев, Александр Румнев, Пётр Любешкин, Анатолий Алексеев, Николай Хрящиков, Георгий Георгиу, Григорий Шпигель, Татьяна Гурецкая, Алексей Долинин, Александр Баранов
О фильме:
По мотивам одноименной пьесы Константина Симонова. Саратовский парень Сергей Луконин (Николай Крючков) летом 1932 года уезжает из районного города в далекий Омск, в танковую школу. Главная идея Луконина – доказать, что тяжелые машины могут пройти по легким мостам. В родном городе остаются его друзья и любимая девушка Варенька, которая мечтает стать актрисой. В 1936 году Сергей отправляется на войну в Испанию. Ранение, плен, побег и вновь учебные бои, а впереди - июнь 1941 года...
Страна: СССР
Продолжительность: 01:24:46
Перевод: не требуется
Файл
Кодек: x264
Качество: SATRip-AVC
Видео: MPEG-4 AVC, 2250 Кбит/с, 720x556@768x556
Звук: AC3, 2 ch, 192 Кбит/с

raw [info]: 720x556p 16:15 @ 25/1 fps (cfr)
x264 [info]: using SAR=16/15
x264 [info]: using cpu capabilities: MMX2 SSE2Fast SSSE3 SSE4.2 AVX
x264 [info]: profile High, level 4.1
x264 [info]: frame I:626 Avg QP:15.99 size: 70305
x264 [info]: frame P:31792 Avg QP:19.31 size: 26642
x264 [info]: frame B:94734 Avg QP:20.77 size: 5697
===============================================================================================================
Общее
Уникальный идентификатор : 226178766270219259338774631768461200622 (0xAA287224D3C00AA1B1603F6567C4CCEE)
Полное имя : D:Парень из нашего города_1942-SATRip-AVC.mkv
Формат : Matroska
Версия формата : Version 2
Размер файла : 1,45 Гбайт
Продолжительность : 1 ч. 24 м.
Общий поток : 2444 Кбит/сек
Дата кодирования : UTC 2016-01-16 08:53:58
Программа кодирования : mkvmerge v5.8.0 ('No Sleep / Pillow') built on Sep 2 2012 15:37:04
Библиотека кодирования : libebml v1.2.3 + libmatroska v1.3.0
Видео
Идентификатор : 1
Формат : AVC
Формат/Информация : Advanced Video Codec
Профиль формата : High@L4.1
Параметр CABAC формата : Да
Параметр ReFrames формата : 15 кадров
Идентификатор кодека : V_MPEG4/ISO/AVC
Продолжительность : 1 ч. 24 м.
Битрейт : 2250 Кбит/сек
Ширина : 720 пикселей
Высота : 556 пикселей
Соотношение сторон : 1,381
Режим частоты кадров : Постоянный
Частота кадров : 25,000 кадров/сек
Цветовое пространство : YUV
Субдискретизация насыщенности : 4:2:0
Битовая глубина : 8 бит
Тип развёртки : Прогрессивная
Бит/(Пиксели*Кадры) : 0.225
Размер потока : 1,30 Гбайт (90%)
Библиотека кодирования : x264 core 148 r2638 7599210
Настройки программы : cabac=1 / ref=15 / deblock=1:-2:-2 / analyse=0x3:0x133 / me=umh / subme=10 / psy=1 / psy_rd=1.05:0.15 / mixed_ref=1 / me_range=32 / chroma_me=1 / trellis=2 / 8x8dct=1 / cqm=0 / deadzone=21,11 / fast_pskip=0 / chroma_qp_offset=-3 / threads=12 / lookahead_threads=2 / sliced_threads=0 / nr=0 / decimate=0 / interlaced=0 / bluray_compat=0 / constrained_intra=0 / bframes=8 / b_pyramid=2 / b_adapt=2 / b_bias=0 / direct=3 / weightb=1 / open_gop=0 / weightp=2 / keyint=250 / keyint_min=25 / scenecut=40 / intra_refresh=0 / rc=2pass / mbtree=0 / bitrate=2250 / ratetol=1.0 / qcomp=0.63 / qpmin=0 / qpmax=39 / qpstep=4 / cplxblur=20.0 / qblur=0.5 / ip_ratio=1.40 / pb_ratio=1.30 / aq=1:1.00
Язык : English
Default : Да
Forced : Нет
Цветовой диапазон : Limited
Основные цвета : BT.601 PAL
Характеристики трансфера : BT.470 System B, BT.470 System G
Коэффициенты матрицы : BT.601
Аудио
Идентификатор : 2
Формат : AC-3
Формат/Информация : Audio Coding 3
Расширение режима : CM (complete main)
Параметр Endianness формата : Big
Идентификатор кодека : A_AC3
Продолжительность : 1 ч. 24 м.
Вид битрейта : Постоянный
Битрейт : 192 Кбит/сек
Каналы : 2 канала
Расположение каналов : Front: L R
Частота : 48,0 КГц
Метод сжатия : С потерями
Задержка видео : 20 мс.
Размер потока : 116 Мбайт (8%)
Язык : Russian
Default : Да
Forced : Нет

Релиз от:
Автор релиза:



   Похожие торренты   Торрент   Размер 
В этой теме нет новых непрочитанных сообщений. Парень из нашего города (1942) DVDRip-AVC

336 | 15

1.79 ГБ

В этой теме нет новых непрочитанных сообщений. Парень из нашего города (1942) DVDRip от New-Team

15 | 9

743.84 МБ

В этой теме нет новых непрочитанных сообщений. Парень из нашего города (1942) DVDRip-AVC от New-Team

22 | 19

1.46 ГБ

В этой теме нет новых непрочитанных сообщений. Парень из нашего города (1942) DVDRip от New-Team

23 | 9

1.46 ГБ

В этой теме нет новых непрочитанных сообщений. 1942 / 1942 (2005) DVDRip от ExKinoRay

64 | 10

1.37 ГБ

В этой теме нет новых непрочитанных сообщений. Касабланка / Casablanca (1942) BDRip-AVC от ExKinoRay | P, А

54 | 4

3.17 ГБ

В этой теме нет новых непрочитанных сообщений. Стальная ярость: Харьков 1942 / Steel Fury: Kharkov 1942 (2007) PC

337 | 43

2.52 ГБ




Вы не можете начинать темы
Вы не можете отвечать на сообщения
Вы не можете редактировать свои сообщения
Вы не можете удалять свои сообщения
Вы не можете добавлять вложения

Перейти:  
Для Мосгорсуда, Роскомнадзора и рекламодателей: mosgorsud-torrent[собачка]yandex.ru
 Вход
ppkBB3cker v.2 © 2008-2014 @ PPK
[ Time : 0.083s | 17 Queries | GZIP : Off ]

Торрент трекер RUTOR.IN, Не можете зайти на rutor.org? Какой новый адрес рутор? Какое зеркало рутор? Не работает rutor.org и зеркала? Тогда наш торрент специально для вас. Rutor.in неофициальное зеркало rutor. В случае если у Вас заблокирован rutor или вдруг Вы не можете на него зайти, то Вы без труда сможете скачать бесплатно и без рекламы последние новинки кино, игр, сериалов и прочего у нас, на Rutor.in. Не нужно использовать прокси, чтобы зайти на рутор, достаточно воспользоваться нашим ресурсом. Все новые фильмы, игры, сериалы, книги и музыка за 2013 и 2014 годы через торрент бесплатно. Скачивайте фильмы в хорошем качестве, игры для пк, xbox, playstation без регистрации. У нас вы найдете новые Зарубежные сериалы и Русские сериалы 2013, 2014, 2015 годов. Оставайтесь с нами, качайте любимые фильмы, игры, сериалы, книги и музыку.
cron