img image001 image001 image001 image001 image001 image001 image001 image001 image001 image001 image001 image001 image001 image001 image001

Planets Sun Sun Sun
Статистика раздачи
Автор: Nickolas3434 | Размер: 743.11 МБ | Добавлен: 18 янв 2016
Раздают: 739    Качают: 29
Скачать торрент
Скачать торрент
Описание торрента

СообщениеДобавлено: 18 янв 2016 


Информация о фильме
Название: Иерей-сан. Исповедь самурая
Год выхода: 2015
Жанр: Боевик, драма
Режиссер: Егор Баранов
В ролях: Кэри-Хироюки Тагава, Пётр Фёдоров, Иван Охлобыстин, Игорь Жижикин, Пётр Мамонов, Дарья Екамасова, Любовь Толкалина, Людмила Чурсина, Надежда Маркина, Алина Бабак
О фильме:
Главный герой — Такуро Накамура, в крещении отец Николай — священник японской православной церкви, в прошлом профессиональный спортсмен, а в настоящем — родной брат главы одного из влиятельных кланов якудза. Однажды он не смог пройти мимо насилия и защитил обычную девушку, вступив в схватку с людьми из враждебной брату группировки. Война кланов якудза неизбежна. Став заложником криминальных «разборок», священник подвергается смертельной опасности и его отправляют служить в российское село Глубокое, раздираемое внутренними конфликтами. Это место крайне интересно Андрею Нелюбину для земельных махинаций, и он готов пойти на все, чтобы жители покинули родные земли. Отец Николай объединяет сельчан вокруг полуразрушенной церкви. Восстанавливая храм, они возродили мир между собой и приняли вызов. Началась уже совсем другая война…

Страна: Россия, Студия Ортодокс
Продолжительность: 01:37:47
Перевод: Не требуется [BD RUS]
Файл
Качество: HDRip
Кодек: XviD
Видео: 720x304 (2,35:1), 25 fps, XviD ~925 kbps avg, 0.169 bit/pixel
Звук: МР3, 48 kHz, 2 ch, ~128.00 kbps avg
Субтитры: Русские (Вшитые, не отключаемые /Forced - Hardsub)
Семпл
General
Complete name : IereY.SAN.2O15.O.HDRip.745.avi
Format : AVI
Format/Info : Audio Video Interleave
File size : 743 MiB
Duration : 1h 37mn
Overall bit rate : 1 062 Kbps
Writing application : VirtualDubMod 1.5.10.3 (build 2550/release)
Writing library : VirtualDubMod build 2550/release
Video
ID : 0
Format : MPEG-4 Visual
Format profile : Advanced Simple@L5
Format settings, BVOP : 2
Format settings, QPel : No
Format settings, GMC : No warppoints
Format settings, Matrix : Default (MPEG)
Codec ID : XVID
Codec ID/Hint : XviD
Duration : 1h 37mn
Bit rate : 925 Kbps
Width : 720 pixels
Height : 304 pixels
Display aspect ratio : 2.35:1
Frame rate : 25.000 fps
Color space : YUV
Chroma subsampling : 4:2:0
Bit depth : 8 bits
Scan type : Progressive
Compression mode : Lossy
Bits/(Pixel*Frame) : 0.169
Stream size : 647 MiB (87%)
Writing library : XviD 73
Audio
ID : 1
Format : MPEG Audio
Format version : Version 1
Format profile : Layer 3
Mode : Joint stereo
Mode extension : MS Stereo
Codec ID : 55
Codec ID/Hint : MP3
Duration : 1h 37mn
Bit rate mode : Constant
Bit rate : 128 Kbps
Channel(s) : 2 channels
Sampling rate : 48.0 KHz
Compression mode : Lossy
Stream size : 89.5 MiB (12%)
Alignment : Aligned on interleaves
Interleave, duration : 40 ms (1.00 video frame)
Interleave, preload duration : 504 ms
Writing library : LAME3.97



   Похожие торренты   Торрент   Размер 
В этой теме нет новых непрочитанных сообщений. Иерей-сан. Исповедь самурая (2015) HDRip | Лицензия

3362 | 116

1.37 ГБ

В этой теме нет новых непрочитанных сообщений. Иерей-сан. Исповедь самурая (2015) BDRip от AleksSin | Лицензия

1044 | 32

1.45 ГБ

В этой теме нет новых непрочитанных сообщений. Иерей-сан. Исповедь самурая (2015) BDRip 720p | Лицензия

963 | 69

5.23 ГБ

В этой теме нет новых непрочитанных сообщений. Иерей-сан. Исповедь самурая (2015) BDRip 1080p | Лицензия

1105 | 63

9.94 ГБ

В этой теме нет новых непрочитанных сообщений. Иерей-сан. Исповедь самурая (2015) BDRip-AVC от ExKinoRay | Лицензия

1939 | 113

1.94 ГБ

В этой теме нет новых непрочитанных сообщений. Иерей-сан. Исповедь самурая (2015) BDRip-AVC от New-Team | Лицензия

1458 | 93

1.46 ГБ

В этой теме нет новых непрочитанных сообщений. Иерей-сан. Исповедь самурая (2015) WEB-DLRip | КПК | iTunes

371 | 9

459.76 МБ




Вы не можете начинать темы
Вы не можете отвечать на сообщения
Вы не можете редактировать свои сообщения
Вы не можете удалять свои сообщения
Вы не можете добавлять вложения

Перейти:  
Для Мосгорсуда, Роскомнадзора и рекламодателей: mosgorsud-torrent[собачка]yandex.ru
 Вход
ppkBB3cker v.2 © 2008-2014 @ PPK
[ Time : 0.047s | 15 Queries | GZIP : Off ]

Торрент трекер RUTOR.IN, Не можете зайти на rutor.org? Какой новый адрес рутор? Какое зеркало рутор? Не работает rutor.org и зеркала? Тогда наш торрент специально для вас. Rutor.in неофициальное зеркало rutor. В случае если у Вас заблокирован rutor или вдруг Вы не можете на него зайти, то Вы без труда сможете скачать бесплатно и без рекламы последние новинки кино, игр, сериалов и прочего у нас, на Rutor.in. Не нужно использовать прокси, чтобы зайти на рутор, достаточно воспользоваться нашим ресурсом. Все новые фильмы, игры, сериалы, книги и музыка за 2013 и 2014 годы через торрент бесплатно. Скачивайте фильмы в хорошем качестве, игры для пк, xbox, playstation без регистрации. У нас вы найдете новые Зарубежные сериалы и Русские сериалы 2013, 2014, 2015 годов. Оставайтесь с нами, качайте любимые фильмы, игры, сериалы, книги и музыку.
cron