img image001 image001 image001 image001 image001 image001 image001 image001 image001 image001 image001 image001 image001 image001 image001

Planets Sun Sun Sun
Статистика раздачи
Автор: Nickolas3434 | Размер: 1.41 ГБ | Добавлен: 18 янв 2016
Раздают: 131    Качают: 20
Скачать торрент
Скачать торрент
Описание торрента

СообщениеДобавлено: 18 янв 2016 


Информация о фильме
Название: За прекрасных дам!
Год выхода: 1989
Жанр: Комедия
Режиссер: Анатолий Эйрамджан
В ролях: Александр Абдулов, Александр Панкратов-Чёрный, Ирина Розанова, Елена Цыплакова, Сергей Степанченко, Ирина Шмелёва, Маргарита Сергеечева, Елена Аржаник
О фильме:
В качестве своих жертв незадачливые грабители выбирают компанию благополучных дам, решивших обсудить свои дела за прекрасным ужином в гостях у одной из подруг. Но ни грабители, ни их жертвы даже не подозревают, к каким необычным и непредвиденным последствиям приведет это ограбление..
Страна: СССР, Фора Фильм
Продолжительность: 01:06:36
Перевод: не требуется
Файл
Кодек: x264
Качество: DVDRip-AVC
Видео: MPEG-4 AVC, 2650 Кбит/с, 698x576@744x576
Звук: AC3, 6 ch, 384 Кбит/с

raw [info]: 698x576p 16:15 @ 25/1 fps (cfr)
x264 [info]: using SAR=16/15
x264 [info]: using cpu capabilities: MMX2 SSE2Fast SSSE3 SSE4.2 AVX
x264 [info]: profile High, level 4.1
x264 [info]: frame I:549 Avg QP:13.64 size:106085
x264 [info]: frame P:21533 Avg QP:16.75 size: 41790
x264 [info]: frame B:77819 Avg QP:20.67 size: 4700
=============================================================================================================
Общее
Уникальный идентификатор : 222096947405526815442117731167047384841 (0xA71650EFA2653DE693140CC4BEE1FF09)
Полное имя : D:За прекрасных дам_1989-DVDRip-AVC.mkv
Формат : Matroska
Версия формата : Version 2
Размер файла : 1,41 Гбайт
Продолжительность : 1 ч. 6 м.
Общий поток : 3036 Кбит/сек
Дата кодирования : UTC 2016-01-17 09:45:03
Программа кодирования : mkvmerge v5.8.0 ('No Sleep / Pillow') built on Sep 2 2012 15:37:04
Библиотека кодирования : libebml v1.2.3 + libmatroska v1.3.0
Видео
Идентификатор : 1
Формат : AVC
Формат/Информация : Advanced Video Codec
Профиль формата : High@L4.1
Параметр CABAC формата : Да
Параметр ReFrames формата : 14 кадров
Идентификатор кодека : V_MPEG4/ISO/AVC
Продолжительность : 1 ч. 6 м.
Битрейт : 2650 Кбит/сек
Ширина : 698 пикселей
Высота : 576 пикселей
Соотношение сторон : 1,292
Соотношение сторон в оригинале : 1,293
Режим частоты кадров : Постоянный
Частота кадров : 25,000 кадров/сек
Цветовое пространство : YUV
Субдискретизация насыщенности : 4:2:0
Битовая глубина : 8 бит
Тип развёртки : Прогрессивная
Бит/(Пиксели*Кадры) : 0.264
Размер потока : 1,21 Гбайт (85%)
Библиотека кодирования : x264 core 148 r2638 7599210
Настройки программы : cabac=1 / ref=14 / deblock=1:-2:-2 / analyse=0x3:0x133 / me=umh / subme=10 / psy=1 / psy_rd=0.75:0.10 / mixed_ref=1 / me_range=32 / chroma_me=1 / trellis=2 / 8x8dct=1 / cqm=0 / deadzone=21,11 / fast_pskip=0 / chroma_qp_offset=-3 / threads=12 / lookahead_threads=3 / sliced_threads=0 / nr=0 / decimate=0 / interlaced=0 / bluray_compat=0 / constrained_intra=0 / bframes=11 / b_pyramid=2 / b_adapt=2 / b_bias=0 / direct=3 / weightb=1 / open_gop=0 / weightp=2 / keyint=250 / keyint_min=25 / scenecut=40 / intra_refresh=0 / rc_lookahead=40 / rc=2pass / mbtree=1 / bitrate=2650 / ratetol=1.0 / qcomp=0.70 / qpmin=0 / qpmax=39 / qpstep=4 / cplxblur=20.0 / qblur=0.5 / ip_ratio=1.40 / aq=2:0.80
Язык : English
Default : Да
Forced : Нет
Цветовой диапазон : Limited
Основные цвета : BT.601 PAL
Характеристики трансфера : BT.470 System B, BT.470 System G
Коэффициенты матрицы : BT.601
Аудио
Идентификатор : 2
Формат : AC-3
Формат/Информация : Audio Coding 3
Расширение режима : CM (complete main)
Параметр Endianness формата : Big
Идентификатор кодека : A_AC3
Продолжительность : 1 ч. 6 м.
Вид битрейта : Постоянный
Битрейт : 384 Кбит/сек
Каналы : 6 каналов
Расположение каналов : Front: L C R, Side: L R, LFE
Частота : 48,0 КГц
Метод сжатия : С потерями
Размер потока : 183 Мбайт (13%)
Язык : Russian
Default : Да
Forced : Нет

Релиз от:
Автор релиза:



   Похожие торренты   Торрент   Размер 
В этой теме нет новых непрочитанных сообщений. За прекрасных дам (1989) DVDRip

52 | 19

1.27 ГБ

В этой теме нет новых непрочитанных сообщений. За прекрасных дам! (1989) DVD5 от Youtracker | лицензия

10 | 4

4.09 ГБ

В этой теме нет новых непрочитанных сообщений. Беспредел (1989) DVDRip-AVC от ExKinoRay

200 | 11

1.81 ГБ

В этой теме нет новых непрочитанных сообщений. Сталинград (1989) DVDRip-AVC от ExKinoRay

635 | 49

3.31 ГБ

В этой теме нет новых непрочитанных сообщений. К-9: Собачья работа / K-9 (1989) DVDRip - ExKinoRay

16 | 8

1.36 ГБ

В этой теме нет новых непрочитанных сообщений. Криминальный квартет (1989) DVDRip-AVC от ExKinoRay

92 | 25

1.44 ГБ

В этой теме нет новых непрочитанных сообщений. Светлая личность (1989) DVDRip-AVC от ExKinoRay

148 | 25

1.62 ГБ




Вы не можете начинать темы
Вы не можете отвечать на сообщения
Вы не можете редактировать свои сообщения
Вы не можете удалять свои сообщения
Вы не можете добавлять вложения

Перейти:  
Для Мосгорсуда, Роскомнадзора и рекламодателей: mosgorsud-torrent[собачка]yandex.ru
 Вход
ppkBB3cker v.2 © 2008-2014 @ PPK
[ Time : 0.019s | 14 Queries | GZIP : Off ]

Торрент трекер RUTOR.IN, Не можете зайти на rutor.org? Какой новый адрес рутор? Какое зеркало рутор? Не работает rutor.org и зеркала? Тогда наш торрент специально для вас. Rutor.in неофициальное зеркало rutor. В случае если у Вас заблокирован rutor или вдруг Вы не можете на него зайти, то Вы без труда сможете скачать бесплатно и без рекламы последние новинки кино, игр, сериалов и прочего у нас, на Rutor.in. Не нужно использовать прокси, чтобы зайти на рутор, достаточно воспользоваться нашим ресурсом. Все новые фильмы, игры, сериалы, книги и музыка за 2013 и 2014 годы через торрент бесплатно. Скачивайте фильмы в хорошем качестве, игры для пк, xbox, playstation без регистрации. У нас вы найдете новые Зарубежные сериалы и Русские сериалы 2013, 2014, 2015 годов. Оставайтесь с нами, качайте любимые фильмы, игры, сериалы, книги и музыку.