img image001 image001 image001 image001 image001 image001 image001 image001 image001 image001 image001 image001 image001 image001 image001

Planets Sun Sun Sun
Статистика раздачи
Автор: Nickolas3434 | Размер: 4.37 ГБ | Добавлен: 25 янв 2016
Раздают: 241    Качают: 124
Скачать торрент
Скачать торрент
Описание торрента

СообщениеДобавлено: 25 янв 2016 


Информация о фильме
Название: Путь
Год выхода: 2009
Жанр: боевик, приключения
Режиссер: Владимир Пасичник
В ролях: Дмитрий Носов, Олег Тактаров, Иван Кокорин, Николай Валуев, Майкл Мэдсен, Ирина Чащина, Дэвид Буено, Елена Нелидова, Ренат Лайшев, Александр Баранов
О фильме: Масштабный приключенческий боевик, действие которого происходит не только в самых неожиданных точках земного шара, но и в разные эпохи. В центре сюжета — история Алексея, молодого человека эпохи лихих 90-х, когда альтернативой нищенскому существованию были криминал и наркотики. Но вместо колонии Алексей попадает в «Школу самбо», где из трудных подростков делают чемпионов. Эта закалка пригодится Алексею в армии и в спецподразделении по борьбе против международного терроризма и наркомафии. Группа Z, которую возглавляет Алекс, получает задание уничтожить базу террористов и выяснить имя предателя, сообщившего им коды доступа к системе слежения с военных спутников.

Выпущено: Way Film Company
Продолжительность: 01:51:36
Перевод: Оригинал (лицензия)
Файл
Кодек: x264
Качество: BDRip (источник: Blu-ray Disc)
Видео: 1280x712 (16:9), 23.976 fps, 5155 kbps
Аудио: AC-3, 6 ch, 448 kbps
Скачать: сэмпл
Скриншоты

Общее
Уникальный идентификатор : 239410595347257793247615022811744480372 (0xB41CCDAF7135BD239F5863C616E6AC74)
Полное имя : Put.2009.BDRip.720p.Rus.mkv
Формат : Matroska
Версия формата : Version 2
Размер файла : 4,37 Гбайт
Продолжительность : 1 ч. 51 м.
Общий поток : 5605 Кбит/сек
Название фильма : Путь (2009)
Дата кодирования : UTC 2016-01-24 11:30:15
Программа кодирования : mkvmerge v5.8.0 ('No Sleep / Pillow') built on Sep 2 2012 15:37:04
Библиотека кодирования : libebml v1.2.3 + libmatroska v1.3.0
Видео
Идентификатор : 1
Формат : AVC
Формат/Информация : Advanced Video Codec
Профиль формата : High@L4.1
Параметр CABAC формата : Да
Параметр ReFrames формата : 8 кадров
Идентификатор кодека : V_MPEG4/ISO/AVC
Продолжительность : 1 ч. 51 м.
Битрейт : 5155 Кбит/сек
Ширина : 1280 пикселей
Высота : 712 пикселей
Соотношение сторон : 16:9
Режим частоты кадров : Постоянный
Частота кадров : 23,976 кадра/сек
Цветовое пространство : YUV
Субдискретизация насыщенности : 4:2:0
Битовая глубина : 8 бит
Тип развёртки : Прогрессивная
Бит/(Пиксели*Кадры) : 0.236
Размер потока : 3,93 Гбайт (90%)
Заголовок : Release by AlexKa
Библиотека кодирования : x264 core 148 r2665 a01e339
Настройки программы : cabac=1 / ref=8 / deblock=1:-3:-3 / analyse=0x3:0x133 / me=umh / subme=11 / psy=1 / psy_rd=1.00:0.00 / mixed_ref=1 / me_range=32 / chroma_me=1 / trellis=2 / 8x8dct=1 / cqm=0 / deadzone=21,11 / fast_pskip=0 / chroma_qp_offset=-2 / threads=12 / lookahead_threads=3 / sliced_threads=0 / nr=0 / decimate=0 / interlaced=0 / bluray_compat=0 / constrained_intra=0 / bframes=12 / b_pyramid=2 / b_adapt=2 / b_bias=0 / direct=3 / weightb=1 / open_gop=0 / weightp=2 / keyint=240 / keyint_min=23 / scenecut=40 / intra_refresh=0 / rc=2pass / mbtree=0 / bitrate=5155 / ratetol=1.0 / qcomp=0.60 / qpmin=0 / qpmax=69 / qpstep=4 / cplxblur=20.0 / qblur=0.5 / ip_ratio=1.40 / pb_ratio=1.30 / aq=1:1.00
Язык : Russian
Аудио
Идентификатор : 2
Формат : AC-3
Формат/Информация : Audio Coding 3
Расширение режима : CM (complete main)
Параметр Endianness формата : Big
Идентификатор кодека : A_AC3
Продолжительность : 1 ч. 51 м.
Вид битрейта : Постоянный
Битрейт : 448 Кбит/сек
Каналы : 6 каналов
Расположение каналов : Front: L C R, Side: L R, LFE
Частота : 48,0 КГц
Метод сжатия : С потерями
Размер потока : 358 Мбайт (8%)
Заголовок : Rus
Язык : Russian
Меню
00:00:00.000 : :Chapter 01
00:09:47.628 : :Chapter 02
00:18:47.000 : :Chapter 03
00:27:13.798 : :Chapter 04
00:36:15.173 : :Chapter 05
00:46:01.925 : :Chapter 06
00:55:08.346 : :Chapter 07
01:03:57.458 : :Chapter 08
01:13:09.927 : :Chapter 09
01:19:33.351 : :Chapter 10
01:30:24.293 : :Chapter 11
01:44:04.237 : :Chapter 12



   Похожие торренты   Торрент   Размер 
В этой теме нет новых непрочитанных сообщений. Путь / The Way (2009) BDRip 720p от FLINTFILMS

2 | 6

2.09 ГБ

В этой теме нет новых непрочитанных сообщений. Путь (2009) BDRip 720p от NOLIMITS-TEAM

5 | 7

2.26 ГБ

В этой теме нет новых непрочитанных сообщений. Звездный путь / Star Trek (2009) BDRip 720p

137 | 41

12.31 ГБ

В этой теме нет новых непрочитанных сообщений. Звездный путь / Star Trek (2009) BDRip 720p от NNNB | D

457 | 45

4.36 ГБ

В этой теме нет новых непрочитанных сообщений. Джек: Путь смерти / Jack Said (2009) BDRip 720p от FLINTFILMS

0 | 2

2.13 ГБ

В этой теме нет новых непрочитанных сообщений. Звездный путь / Star Trek (2009) BDRip 720p от Leonardo and Scarabey | Лицензия

204 | 37

6.16 ГБ

В этой теме нет новых непрочитанных сообщений. Путь Махатмы Ганди. Путь к свободе / The road to freedom (2009) IPTVRip от Pshichko66

63 | 5

800.29 МБ




Вы не можете начинать темы
Вы не можете отвечать на сообщения
Вы не можете редактировать свои сообщения
Вы не можете удалять свои сообщения
Вы не можете добавлять вложения

Перейти:  
Для Мосгорсуда, Роскомнадзора и рекламодателей: mosgorsud-torrent[собачка]yandex.ru
 Вход
ppkBB3cker v.2 © 2008-2014 @ PPK
[ Time : 0.026s | 14 Queries | GZIP : Off ]

Торрент трекер RUTOR.IN, Не можете зайти на rutor.org? Какой новый адрес рутор? Какое зеркало рутор? Не работает rutor.org и зеркала? Тогда наш торрент специально для вас. Rutor.in неофициальное зеркало rutor. В случае если у Вас заблокирован rutor или вдруг Вы не можете на него зайти, то Вы без труда сможете скачать бесплатно и без рекламы последние новинки кино, игр, сериалов и прочего у нас, на Rutor.in. Не нужно использовать прокси, чтобы зайти на рутор, достаточно воспользоваться нашим ресурсом. Все новые фильмы, игры, сериалы, книги и музыка за 2013 и 2014 годы через торрент бесплатно. Скачивайте фильмы в хорошем качестве, игры для пк, xbox, playstation без регистрации. У нас вы найдете новые Зарубежные сериалы и Русские сериалы 2013, 2014, 2015 годов. Оставайтесь с нами, качайте любимые фильмы, игры, сериалы, книги и музыку.