img image001 image001 image001 image001 image001 image001 image001 image001 image001 image001 image001 image001 image001 image001 image001

Planets Sun Sun Sun
Статистика раздачи
Автор: Nickolas3434 | Размер: 2.17 ГБ | Добавлен: 31 янв 2016
Раздают: 322    Качают: 37
Скачать торрент
Скачать торрент
Описание торрента

СообщениеДобавлено: 31 янв 2016 


Информация о фильме
Название: Волкодав из рода Серых Псов
Год выхода: 2006
Жанр: Фэнтези, боевик
Режиссер: Николай Лебедев
В ролях: Александр Бухаров, Оксана Акиньшина, Александр Домогаров, Игорь Петренко, Юозас Будрайтис, Резо Эсадзе, Артем Семакин, Наталья Варлей, Татьяна Лютаева, Анатолий Белый, Лилиан Наврозашвили, Андрей Руденский, Евгения Свиридова, Евгения Тодорашко, Петр Зайченко, Мария Скосырева, Нина Усатова, Вера Иванова, Геннадий Макоев, Павел Меленчук, Алексей Дмитриев, Илья Соколовский, Павел Сборщиков, Алексей Королёв, Вадим Колганов, Александр Дьяченко, Александр Гаврюшин, Александр Пахомов, Лиза Арзамасова, Борис Талах, Денис Меленчук, Роман Акимов, Сергей Миллер, Павел Крайнов, Елена Королева...
О фильме:
Он был обречен на гибель, но выжил, чтобы отомстить за истребление своего рода. Последний человек из племени Серых Псов стал могучим воином, называющим себя Волкодав. Избежав смерти в подземных рудниках, Волкодав пускается в путь в сопровождении своего спутника, Нелетучего Мыша. Волкодав одержим желанием покарать Людоеда, уничтожившего деревню Серых Псов. Добравшись до замка заклятого врага, Волкодав жестоко расправляется с Людоедом. Там же он освобождает двух пленников, мудреца Тилорна и рабыню Ниилит. Вместе с ними Волкодав попадает в город Галирад, переживающий смутные времена. Кнес Галирада, стремясь спасти город от разорения, сватает свою дочь Елень за молодого воина Винитара, обещающего защиту Галираду. Юной кнесинке предстоит дальняя дорога в земли будущего мужа. Она просит Волкодава стать ее телохранителем в опасном путешествии. Согласившись служить кнесинке, Волкодав оказывается втянутым в водоворот таинственных событий, проливающих свет на истинную цель поездки…

Страна: Россия
Продолжительность: 02:21:59
Перевод: Оригинал
Файл
Кодек: H264
Качество: HDRip-AVC
Видео: AVC, 1024x436 (2.35:1), 23.976 fps, 1 743 Kbps (0.163 bit/pixel)
Аудио: AC-3, 48.0 KHz, 6 ch, 448 Kbps, CBR
Субтитры: Нет
Формат : Matroska
Версия формата : Version 2
Размер файла : 2,17 Гбайт
Продолжительность : 2 ч. 21 м.
Общий поток : 2192 Кбит/сек
Дата кодирования : UTC 2016-01-23 15:27:22
Программа кодирования : mkvmerge v5.3.0 ('I could have danced') built on Feb 9 2012 10:38:07
Библиотека кодирования : libebml v1.2.3 + libmatroska v1.3.0
Attachment : Yes
Видео
Идентификатор : 1
Формат : AVC
Формат/Информация : Advanced Video Codec
Профиль формата : High@L4.1
Параметр CABAC формата : Да
Параметр ReFrames формата : 10 кадров
Идентификатор кодека : V_MPEG4/ISO/AVC
Продолжительность : 2 ч. 21 м.
Битрейт : 1743 Кбит/сек
Ширина : 1024 пикселя
Высота : 436 пикселей
Соотношение сторон : 2,35:1
Режим частоты кадров : Постоянный
Частота кадров : 23,976 кадра/сек
Цветовое пространство : YUV
Субдискретизация насыщенности : 4:2:0
Битовая глубина : 8 бит
Тип развёртки : Прогрессивная
Бит/(Пиксели*Кадры) : 0.163
Размер потока : 1,69 Гбайт (78%)
Библиотека кодирования : x264 core 146 r2538 121396c
Настройки программы : cabac=1 / ref=10 / deblock=1:-3:-3 / analyse=0x3:0x133 / me=umh / subme=11 / psy=1 / psy_rd=1.00:0.10 / mixed_ref=1 / me_range=32 / chroma_me=1 / trellis=2 / 8x8dct=1 / cqm=0 / deadzone=21,11 / fast_pskip=0 / chroma_qp_offset=-3 / threads=12 / lookahead_threads=2 / sliced_threads=0 / nr=0 / decimate=0 / interlaced=0 / bluray_compat=0 / constrained_intra=0 / bframes=8 / b_pyramid=2 / b_adapt=2 / b_bias=0 / direct=3 / weightb=1 / open_gop=0 / weightp=2 / keyint=240 / keyint_min=23 / scenecut=40 / intra_refresh=0 / rc=2pass / mbtree=0 / bitrate=1743 / ratetol=1.0 / qcomp=0.60 / qpmin=0 / qpmax=69 / qpstep=4 / cplxblur=20.0 / qblur=0.5 / ip_ratio=1.40 / pb_ratio=1.30 / aq=3:0.70
Default : Да
Forced : Нет
Аудио
Идентификатор : 2
Формат : AC-3
Формат/Информация : Audio Coding 3
Расширение режима : CM (complete main)
Параметр Endianness формата : Big
Идентификатор кодека : A_AC3
Продолжительность : 2 ч. 21 м.
Вид битрейта : Постоянный
Битрейт : 448 Кбит/сек
Каналы : 6 каналов
Расположение каналов : Front: L C R, Side: L R, LFE
Частота : 48,0 КГц
Битовая глубина : 16 бит
Метод сжатия : С потерями
Размер потока : 455 Мбайт (20%)
Default : Да
Forced : Нет

Скриншоты:



   Похожие торренты   Торрент   Размер 
В этой теме нет новых непрочитанных сообщений. Волкодав из рода Серых Псов (2006) HDRip от Шкипер

276 | 19

1.47 ГБ

В этой теме нет новых непрочитанных сообщений. Волкодав из рода серых псов (2006) HDRip от Youtracker

192 | 31

2.19 ГБ

В этой теме нет новых непрочитанных сообщений. Волкодав: Последний из рода Серых Псов (2006) PC

486 | 13

1.18 ГБ

В этой теме нет новых непрочитанных сообщений. Волкодав из рода Серых Псов (2006) BDRip от HQCLUB

60 | 6

2.18 ГБ

В этой теме нет новых непрочитанных сообщений. Волкодав из рода Серых Псов (2006) BDRip 720p

276 | 57

4.37 ГБ

В этой теме нет новых непрочитанных сообщений. Волкодав из рода Серых Псов (2006) BDRip 1080p

83 | 13

4.37 ГБ

В этой теме нет новых непрочитанных сообщений. Мария Семёнова - Волкодав 01. Волкодав из рода Серых Псов (2011) MP3

135 | 6

1.29 ГБ




Вы не можете начинать темы
Вы не можете отвечать на сообщения
Вы не можете редактировать свои сообщения
Вы не можете удалять свои сообщения
Вы не можете добавлять вложения

Перейти:  
Для Мосгорсуда, Роскомнадзора и рекламодателей: mosgorsud-torrent[собачка]yandex.ru
 Вход
ppkBB3cker v.2 © 2008-2014 @ PPK
[ Time : 0.043s | 14 Queries | GZIP : On ]

Торрент трекер RUTOR.IN, Не можете зайти на rutor.org? Какой новый адрес рутор? Какое зеркало рутор? Не работает rutor.org и зеркала? Тогда наш торрент специально для вас. Rutor.in неофициальное зеркало rutor. В случае если у Вас заблокирован rutor или вдруг Вы не можете на него зайти, то Вы без труда сможете скачать бесплатно и без рекламы последние новинки кино, игр, сериалов и прочего у нас, на Rutor.in. Не нужно использовать прокси, чтобы зайти на рутор, достаточно воспользоваться нашим ресурсом. Все новые фильмы, игры, сериалы, книги и музыка за 2013 и 2014 годы через торрент бесплатно. Скачивайте фильмы в хорошем качестве, игры для пк, xbox, playstation без регистрации. У нас вы найдете новые Зарубежные сериалы и Русские сериалы 2013, 2014, 2015 годов. Оставайтесь с нами, качайте любимые фильмы, игры, сериалы, книги и музыку.