img image001 image001 image001 image001 image001 image001 image001 image001 image001 image001 image001 image001 image001 image001 image001

Planets Sun Sun Sun
Статистика раздачи
Автор: Nickolas3434 | Размер: 1.46 ГБ | Добавлен: 31 янв 2016
Раздают: 111    Качают: 7
Скачать торрент
Скачать торрент
Описание торрента

СообщениеДобавлено: 31 янв 2016 

Страна: СССР
Производство: Мосфильм
Жанр: драма
Год выпуска: 1953
Продолжительность: 01:42:03
Перевод: Не требуется
Cубтитры: нет
Оригинальная аудиодорожка: русский
Режиссер: Всеволод Пудовкин
В ролях:
Сергей Лукьянов, Наталья Медведева, Николай Тимофеев, Анатолий Чемодуров, Инна Макарова, Анатолий Игнатьев, Всеволод Санаев, Клара Лучко, Галина Степанова, Нонна Мордюкова, Николай Добронравов, Николай Шамин, Андрей Петров, Мария Яроцкая, Владимир Колчин, Данута Столярская, Василий Харлашин, Петр Кирюткин...
Полный список актёров
Описание:
По роману Галины Николаевой "Жатва".
После контузии, пролежав несколько лет в госпитале, Василий (Серегей Лукьянов) вернулся в колхоз, где прежде был председателем. Считая его погибшим, жена переживала потерю мужа, однако тяжелые годы и долгая искренняя любовь механика Мохова стали оправданием для нее, когда она решила привести нового мужа в свой дом... Возвращение Василия было трудным для всех. Вновь избранный председателем колхоза, он целиком отдал себя труду... А потом состоялось возвращение и в родную семью.
Последняя работа выдающегося советского режиссера Всеволода Пудовкина.
Первая роль в кино Дануты Столярской (Граня).
Лидер проката (1953, 16 место) - 20.9 млн. зрителей.
Премия "Золотой колос" на МКФ сельскохозяйственных фильмов в Риме-53.





Источник: DVB
Качество видео: SATRip-AVC
Формат видео: MKV
Видео: 696->736x552 (4:3), 25 fps, H264 ~ 1852 kbps avg, 0.193 bit/pixel
Аудио: 48 kHz, Dolby Digital AC3 2.0, 192 kbps
Раздача от:
Общее
Полное имя : Vozvrashhenie.Vasiliya.Bortnikova.1953.SATRip-AVC_[New-team]_by_AVP_Studio.mkv
Формат : Matroska
Версия формата : Version 2
Размер файла : 1,46 Гбайт
Продолжительность : 1 ч. 42 м.
Общий поток : 2046 Кбит/сек
Дата кодирования : UTC 2016-01-23 13:47:56
Программа кодирования : mkvmerge v6.1.0 ('Old Devil') built on Mar 4 2013 09:10:42
Библиотека кодирования : libebml v1.3.0 + libmatroska v1.4.0
Видео
Идентификатор : 1
Формат : AVC
Формат/Информация : Advanced Video Codec
Профиль формата : High@L4.1
Параметр CABAC формата : Да
Параметр ReFrames формата : 10 кадров
Идентификатор кодека : V_MPEG4/ISO/AVC
Продолжительность : 1 ч. 42 м.
Битрейт : 1852 Кбит/сек
Ширина : 696 пикселей
Высота : 552 пикселя
Соотношение сторон : 4:3
Режим частоты кадров : Постоянный
Частота кадров : 25,000 кадров/сек
Цветовое пространство : YUV
Субдискретизация насыщенности : 4:2:0
Битовая глубина : 8 бит
Тип развёртки : Прогрессивная
Бит/(Пиксели*Кадры) : 0.193
Размер потока : 1,29 Гбайт (89%)
Библиотека кодирования : x264 core 130 r2273 b3065e6
Настройки программы : cabac=1 / ref=10 / deblock=1:-2:-1 / analyse=0x3:0x113 / me=umh / subme=10 / psy=1 / psy_rd=1.00:0.00 / mixed_ref=1 / me_range=32 / chroma_me=1 / trellis=2 / 8x8dct=1 / cqm=0 / deadzone=21,11 / fast_pskip=1 / chroma_qp_offset=-2 / threads=6 / lookahead_threads=1 / sliced_threads=0 / nr=0 / decimate=0 / interlaced=0 / bluray_compat=0 / constrained_intra=0 / bframes=8 / b_pyramid=2 / b_adapt=2 / b_bias=0 / direct=3 / weightb=1 / open_gop=0 / weightp=2 / keyint=250 / keyint_min=25 / scenecut=40 / intra_refresh=0 / rc=2pass / mbtree=0 / bitrate=1852 / ratetol=1.0 / qcomp=0.60 / qpmin=0 / qpmax=69 / qpstep=4 / cplxblur=20.0 / qblur=0.5 / ip_ratio=1.40 / pb_ratio=1.30 / aq=1:1.00
Default : Да
Forced : Нет
Аудио
Идентификатор : 2
Формат : AC-3
Формат/Информация : Audio Coding 3
Расширение режима : CM (complete main)
Параметр Endianness формата : Big
Идентификатор кодека : A_AC3
Продолжительность : 1 ч. 42 м.
Вид битрейта : Постоянный
Битрейт : 192 Кбит/сек
Каналы : 2 канала
Расположение каналов : Front: L R
Частота : 48,0 КГц
Частота кадров : 31,250 кадров/сек (1536 spf)
Метод сжатия : С потерями
Размер потока : 140 Мбайт (9%)
Default : Да
Forced : Нет





   Похожие торренты   Торрент   Размер 
В этой теме нет новых непрочитанных сообщений. Возвращение Василия Бортникова (1953) SATRip от New-Team

26 | 11

745.13 МБ

В этой теме нет новых непрочитанных сообщений. Возвращение Василия Бортникова (1953) SATRip от New-Team

38 | 22

1.46 ГБ

В этой теме нет новых непрочитанных сообщений. Возвращение Василия Бортникова (1953) DVDRip

35 | 4

1.37 ГБ

В этой теме нет новых непрочитанных сообщений. Застава в горах (1953) SATRip от New-Team

23 | 10

1.46 ГБ

В этой теме нет новых непрочитанных сообщений. Судьба Марины (1953) SATRip-AVC от New-Team

31 | 8

1.46 ГБ

В этой теме нет новых непрочитанных сообщений. Судьба Марины (1953) SATRip от New-Team

165 | 10

745.06 МБ

В этой теме нет новых непрочитанных сообщений. Судьба Марины (1953) SATRip от New-Team

37 | 6

1.46 ГБ




Вы не можете начинать темы
Вы не можете отвечать на сообщения
Вы не можете редактировать свои сообщения
Вы не можете удалять свои сообщения
Вы не можете добавлять вложения

Перейти:  
Для Мосгорсуда, Роскомнадзора и рекламодателей: mosgorsud-torrent[собачка]yandex.ru
 Вход
ppkBB3cker v.2 © 2008-2014 @ PPK
[ Time : 0.114s | 15 Queries | GZIP : Off ]

Торрент трекер RUTOR.IN, Не можете зайти на rutor.org? Какой новый адрес рутор? Какое зеркало рутор? Не работает rutor.org и зеркала? Тогда наш торрент специально для вас. Rutor.in неофициальное зеркало rutor. В случае если у Вас заблокирован rutor или вдруг Вы не можете на него зайти, то Вы без труда сможете скачать бесплатно и без рекламы последние новинки кино, игр, сериалов и прочего у нас, на Rutor.in. Не нужно использовать прокси, чтобы зайти на рутор, достаточно воспользоваться нашим ресурсом. Все новые фильмы, игры, сериалы, книги и музыка за 2013 и 2014 годы через торрент бесплатно. Скачивайте фильмы в хорошем качестве, игры для пк, xbox, playstation без регистрации. У нас вы найдете новые Зарубежные сериалы и Русские сериалы 2013, 2014, 2015 годов. Оставайтесь с нами, качайте любимые фильмы, игры, сериалы, книги и музыку.