img image001 image001 image001 image001 image001 image001 image001 image001 image001 image001 image001 image001 image001 image001 image001

Planets Sun Sun Sun
Статистика раздачи
Автор: Nickolas3434 | Размер: 1.52 ГБ | Добавлен: 31 янв 2016
Раздают: 3    Качают: 4
Скачать торрент
Скачать торрент
Описание торрента

СообщениеДобавлено: 31 янв 2016 


Информация о фильме
Название: Приближение
Год выхода: 1989
Жанр: притча
Режиссер: Александр Рехвиашвили
В ролях: Анна Нижарадзе, Жанри Лолашвили, Марика Чичинадзе, Иосиф (Сосо) Лагидзе, Лео (Леван) Антадзе, Лери Кенчошвили, Мераб Нинидзе, Зинаида Кверенчхиладзе, Ия Парулава, Нинель Чанкветадзе
О фильме:
Полнокровная, интересная жизнь давно покинула дом, где живут мать, отец, сын и дочь. Бытовые мелочи, «дежурные разговоры» за обедом — это все, что их связывает. Ситуация меняется, когда становится известно, что семье по наследству переходит деревенский дом и, возможно, предстоит вступить в борьбу с сонаследниками. Со дна сундуков извлекаются старые альбомы и документы, подтверждающие приоритет семьи, затеваются интриги...


Запись потока *.ts с наземного цифрового телеканала "Беларусь 3", ремукс в *.mpg программой VideoReDo.
Страна: Грузинская ССР
Студия: ГРУЗИЯ-ФИЛЬМ
Продолжительность: 01:26:31
Язык: грузинский
Дубляж: русский одноголосный
Интертитры: грузинские с русской озвучкой
Файл
Кодек: AVC (H264)
Качество: DVB
Видео: AVC (H264), 720x576 (4:3), 25 fps, 2 204 Kbps
Звук: MP2, 256 kbps, 2 channels, 48 kHz
Семпл
Код:
General
Unique ID                      : 102644605350139964834065704178067671012 (0x4D38A1C4AE588ECE13A84068934387E4)
Complete name                  : D:Новая  земля 2Художественные фильмыПриближение (1989)Приближение (1989).mkv
Format                         : Matroska
Format version                 : Version 2
File size                      : 1.52 GiB
Duration                       : 1h 26mn
Overall bit rate               : 2 510 Kbps
Writing application            : Lavf52.64.2
Writing library                : Lavf52.64.2
Video
ID                             : 1
Format                         : AVC
Format/Info                    : Advanced Video Codec
Format profile                 : Main@L3.0
Format settings, CABAC         : Yes
Format settings, ReFrames      : 4 frames
Format settings, GOP           : M=4, N=24
Codec ID                       : V_MPEG4/ISO/AVC
Duration                       : 1h 26mn
Bit rate                       : 2 204 Kbps
Width                          : 720 pixels
Height                         : 576 pixels
Display aspect ratio           : 4:3
Original display aspect ratio  : 4:3
Frame rate mode                : Constant
Frame rate                     : 25.000 fps
Standard                       : PAL
Color space                    : YUV
Chroma subsampling             : 4:2:0
Bit depth                      : 8 bits
Scan type                      : MBAFF
Scan order                     : Top Field First
Bits/(Pixel*Frame)             : 0.213
Stream size                    : 1.33 GiB (88%)
Default                        : Yes
Forced                         : No
Color primaries                : BT.601 PAL
Transfer characteristics       : BT.470 System B, BT.470 System G
Matrix coefficients            : BT.601
Color range                    : Limited
Audio
ID                             : 2
Format                         : MPEG Audio
Format version                 : Version 1
Format profile                 : Layer 2
Codec ID                       : A_MPEG/L2
Codec ID/Hint                  : MP2
Duration                       : 1h 26mn
Bit rate mode                  : Constant
Bit rate                       : 256 Kbps
Channel(s)                     : 2 channels
Sampling rate                  : 48.0 KHz
Compression mode               : Lossy
Stream size                    : 158 MiB (10%)
Language                       : English
Default                        : Yes
Forced                         : No





   Похожие торренты   Торрент   Размер 
В этой теме нет новых непрочитанных сообщений. Бесаме (1989) DVB от AND03AND | Р2

5 | 3

1.74 ГБ

В этой теме нет новых непрочитанных сообщений. Ветер забвения (1989) DVB от AND03AND

14 | 4

1.75 ГБ

В этой теме нет новых непрочитанных сообщений. Новогодний голубой огонёк 1988 (1989) DVB от AND03AND

43 | 282

5.2 ГБ

В этой теме нет новых непрочитанных сообщений. Человек, которого не было / Inimene, keda polnud (1989) DVB от AND03AND | P2

17 | 6

1.57 ГБ

В этой теме нет новых непрочитанных сообщений. Опера - Дикая охота короля Стаха / Дзікае паляванне караля Стаха [BLR] (1989) DVB от AND03AND

3 | 23

1.83 ГБ

В этой теме нет новых непрочитанных сообщений. Skid Row, Ozzy Osbourne, Gorky Park, Cinderella - Moscow Music Peace Festival 1989 (1989) MP3

25 | 18

209.63 МБ

В этой теме нет новых непрочитанных сообщений. Сальвадор Дали - 1989 (1989) MP3

0 | 2

91.84 МБ




Вы не можете начинать темы
Вы не можете отвечать на сообщения
Вы не можете редактировать свои сообщения
Вы не можете удалять свои сообщения
Вы не можете добавлять вложения

Перейти:  
Для Мосгорсуда, Роскомнадзора и рекламодателей: mosgorsud-torrent[собачка]yandex.ru
 Вход
ppkBB3cker v.2 © 2008-2014 @ PPK
[ Time : 0.026s | 15 Queries | GZIP : Off ]

Торрент трекер RUTOR.IN, Не можете зайти на rutor.org? Какой новый адрес рутор? Какое зеркало рутор? Не работает rutor.org и зеркала? Тогда наш торрент специально для вас. Rutor.in неофициальное зеркало rutor. В случае если у Вас заблокирован rutor или вдруг Вы не можете на него зайти, то Вы без труда сможете скачать бесплатно и без рекламы последние новинки кино, игр, сериалов и прочего у нас, на Rutor.in. Не нужно использовать прокси, чтобы зайти на рутор, достаточно воспользоваться нашим ресурсом. Все новые фильмы, игры, сериалы, книги и музыка за 2013 и 2014 годы через торрент бесплатно. Скачивайте фильмы в хорошем качестве, игры для пк, xbox, playstation без регистрации. У нас вы найдете новые Зарубежные сериалы и Русские сериалы 2013, 2014, 2015 годов. Оставайтесь с нами, качайте любимые фильмы, игры, сериалы, книги и музыку.