img image001 image001 image001 image001 image001 image001 image001 image001 image001 image001 image001 image001 image001 image001 image001

Planets Sun Sun Sun
Статистика раздачи
Автор: Nickolas3434 | Размер: 4.35 ГБ | Добавлен: 31 янв 2016
Раздают: 73    Качают: 15
Скачать торрент
Скачать торрент
Описание торрента

СообщениеДобавлено: 31 янв 2016 


Информация о фильме
Название: Волга-Волга
Год выхода: 1938
Жанр: Комедия
Режиссер: Григорий Александров
В ролях: Игорь Ильинский, Любовь Орлова, Павел Оленев, Андрей Тутышкин, Сергей Антимонов, Владимир Володин, Мария Миронова, Всеволод Санаев, Эммануил Геллер, Никита Кондратьев...
О фильме:
Начальник управления мелкой кустарной промышленности Бывалов мечтает о службе в Москве. Он получает распоряжение подготовить к всесоюзному смотру участников художественной самодеятельности. Бывалов считает, что посылать в Москву некого, несмотря на то, что в городе есть два творческих коллектива. В конце концов каждая группа отправляется по Волге в столицу своим путем.

Страна: СССР
Студия: Мосфильм
Продолжительность: 01:48:00
Перевод: Не требуется
Файл
Кодек: MPEG2
Качество: DVD5
Видео: PAL 4:3 (720x576) 4833 Kbps, 25.000 fps
Звук: Dolby AC3, 5.1, 6ch, 448 kbps
Субтитры: Отсутствует
General
Complete name : D:ТоррентыВолга-ВолгаВолга-волга DVD5(Сжатый) by vovaniez от RG TRUVIDEO_TSVTS_03_5.VOB
Format : MPEG-PS
File size : 336 MiB
Duration : 8mn 43s
Overall bit rate mode : Variable
Overall bit rate : 5 388 Kbps
Video
ID : 224 (0xE0)
Format : MPEG Video
Format version : Version 2
Format profile : Main@Main
Format settings, BVOP : Yes
Format settings, Matrix : Custom
Format settings, GOP : Variable
Format settings, picture structure : Frame
Duration : 8mn 42s
Bit rate mode : Variable
Bit rate : 4 833 Kbps
Maximum bit rate : 8 321 Kbps
Width : 720 pixels
Height : 576 pixels
Display aspect ratio : 4:3
Frame rate : 25.000 fps
Standard : PAL
Color space : YUV
Chroma subsampling : 4:2:0
Bit depth : 8 bits
Scan type : Interlaced
Scan order : Top Field First
Compression mode : Lossy
Bits/(Pixel*Frame) : 0.466
Time code of first frame : 01:30:18:06
Time code source : Group of pictures header
GOP, Open/Closed : Open
Stream size : 301 MiB (90%)
Audio
ID : 189 (0xBD)-129 (0x81)
Format : AC-3
Format/Info : Audio Coding 3
Mode extension : CM (complete main)
Format settings, Endianness : Big
Muxing mode : DVD-Video
Duration : 8mn 43s
Bit rate mode : Constant
Bit rate : 448 Kbps
Channel(s) : 6 channels
Channel positions : Front: L C R, Side: L R, LFE
Sampling rate : 48.0 KHz
Compression mode : Lossy
Delay relative to video : -752ms
Stream size : 27.9 MiB (8%)
Menu



   Похожие торренты   Торрент   Размер 
В этой теме нет новых непрочитанных сообщений. Волга-Волга (1938) HDTVRip 1080p от balshik | Цветная версия

55 | 13

6.02 ГБ

В этой теме нет новых непрочитанных сообщений. Волга-Волга (1938) HDTVRip от New-Team | Цветная версия

76 | 28

1.46 ГБ

В этой теме нет новых непрочитанных сообщений. Волга-Волга (1938) HDTVRip-AVC от ExKinoRay | Цветная версия

79 | 23

3.05 ГБ

В этой теме нет новых непрочитанных сообщений. Волга-Волга (1938) HDTVRip-AVC от New-Team | Цветная версия

69 | 14

1.46 ГБ

В этой теме нет новых непрочитанных сообщений. Волга-Волга (1938) HDTVRip от New-Team | Цветная версия

21 | 12

745.11 МБ

В этой теме нет новых непрочитанных сообщений. Волга-Волга (1938) DVDRip от Шкипер | Цветная версия

165 | 24

748.85 МБ

В этой теме нет новых непрочитанных сообщений. Волга-Волга (1938) DVDRip от MediaClub | КПК | Цветная версия

33 | 13

447.14 МБ




Вы не можете начинать темы
Вы не можете отвечать на сообщения
Вы не можете редактировать свои сообщения
Вы не можете удалять свои сообщения
Вы не можете добавлять вложения

Перейти:  
Для Мосгорсуда, Роскомнадзора и рекламодателей: mosgorsud-torrent[собачка]yandex.ru
 Вход
ppkBB3cker v.2 © 2008-2014 @ PPK
[ Time : 0.068s | 14 Queries | GZIP : Off ]

Торрент трекер RUTOR.IN, Не можете зайти на rutor.org? Какой новый адрес рутор? Какое зеркало рутор? Не работает rutor.org и зеркала? Тогда наш торрент специально для вас. Rutor.in неофициальное зеркало rutor. В случае если у Вас заблокирован rutor или вдруг Вы не можете на него зайти, то Вы без труда сможете скачать бесплатно и без рекламы последние новинки кино, игр, сериалов и прочего у нас, на Rutor.in. Не нужно использовать прокси, чтобы зайти на рутор, достаточно воспользоваться нашим ресурсом. Все новые фильмы, игры, сериалы, книги и музыка за 2013 и 2014 годы через торрент бесплатно. Скачивайте фильмы в хорошем качестве, игры для пк, xbox, playstation без регистрации. У нас вы найдете новые Зарубежные сериалы и Русские сериалы 2013, 2014, 2015 годов. Оставайтесь с нами, качайте любимые фильмы, игры, сериалы, книги и музыку.