img image001 image001 image001 image001 image001 image001 image001 image001 image001 image001 image001 image001 image001 image001 image001

Planets Sun Sun Sun
Статистика раздачи
Автор: Nickolas3434 | Размер: 1.62 ГБ | Добавлен: 31 янв 2016
Раздают: 148    Качают: 25
Скачать торрент
Скачать торрент
Описание торрента

СообщениеДобавлено: 31 янв 2016 


Информация о фильме
Название: Светлая личность
Год выхода: 1989
Жанр: Мюзикл, комедия
Режиссер: Александр Павловский
В ролях: Николай Караченцов, Александра Яковлева, Абессалом Лория, Галина Польских, Михаил Светин, Светлана Крючкова, Андрей Анкудинов, Борислав Брондуков, Александр Демьяненко, Игорь Дмитриев, Виктор Ильичёв, Михаил Кокшенов, Виктор Павлов, Всеволод Шиловский, Сергей Зинченко, Владимир Татосов, Юрий Рудченко, Сергей Мигицко, Вероника Изотова, Владимир Волков, Николай Слезка, Олег Федулов, Алла Будницкая, Ирина Мельник, Борис Молодан, Владимир Наумцев, Валентин Козачков, Виктор Павловский, Игорь Шкурин, Виктор Раду, Борис Боровский, Сергей Гавришкив, Нонна Алексеева, Михаил Бижикян
О фильме:
По мотивам сатирических произведений И. Ильфа и Е. Петрова. Волей случая главный герой картины становится невидимкой. Этот курьез вызывает цепь эксцентрических событий, позволяющих авторам в гротескной форме высмеять такие живучие пороки, как бюрократизм, чванство, карьеризм, семейственность…
Страна: СССР, Одесская киностудия
Продолжительность: 01:17:04
Перевод: не требуется
Файл
Кодек: x264
Качество: DVDRip-AVC
Видео: MPEG-4 AVC, 2750 Кбит/с, 698x574@781x574
Звук: AC3, 2 ch, 256 Кбит/с

raw [info]: 698x574p 373:333 @ 25/1 fps (cfr)
x264 [info]: using SAR=373/333
x264 [info]: using cpu capabilities: MMX2 SSE2Fast SSSE3 SSE4.2 AVX
x264 [info]: profile High, level 4.1
x264 [info]: frame I:773 Avg QP:15.98 size: 64954
x264 [info]: frame P:33481 Avg QP:19.32 size: 26622
x264 [info]: frame B:81370 Avg QP:20.82 size: 7968
============================================================================================================
Общее
Уникальный идентификатор : 173361034901623262161639935811534875508 (0x826C1EEEC2BF8A3282FFC666DA3A6B74)
Полное имя : D:Светлая личность_1989-DVDRip-AVC.mkv
Формат : Matroska
Версия формата : Version 2
Размер файла : 1,62 Гбайт
Продолжительность : 1 ч. 17 м.
Общий поток : 2988 Кбит/сек
Дата кодирования : UTC 2016-01-29 21:13:16
Программа кодирования : mkvmerge v5.8.0 ('No Sleep / Pillow') built on Sep 2 2012 15:37:04
Библиотека кодирования : libebml v1.2.3 + libmatroska v1.3.0
Видео
Идентификатор : 1
Формат : AVC
Формат/Информация : Advanced Video Codec
Профиль формата : High@L4.1
Параметр CABAC формата : Да
Параметр ReFrames формата : 13 кадров
Идентификатор кодека : V_MPEG4/ISO/AVC
Продолжительность : 1 ч. 17 м.
Битрейт : 2750 Кбит/сек
Ширина : 698 пикселей
Высота : 574 пикселя
Соотношение сторон : 4:3
Соотношение сторон в оригинале : 4:3
Режим частоты кадров : Постоянный
Частота кадров : 25,000 кадров/сек
Цветовое пространство : YUV
Субдискретизация насыщенности : 4:2:0
Битовая глубина : 8 бит
Тип развёртки : Прогрессивная
Бит/(Пиксели*Кадры) : 0.275
Размер потока : 1,45 Гбайт (89%)
Библиотека кодирования : x264 core 148 r2638 7599210
Настройки программы : cabac=1 / ref=13 / deblock=1:-2:-2 / analyse=0x3:0x133 / me=umh / subme=10 / psy=1 / psy_rd=1.05:0.13 / mixed_ref=1 / me_range=32 / chroma_me=1 / trellis=2 / 8x8dct=1 / cqm=0 / deadzone=21,11 / fast_pskip=0 / chroma_qp_offset=-3 / threads=12 / lookahead_threads=2 / sliced_threads=0 / nr=0 / decimate=0 / interlaced=0 / bluray_compat=0 / constrained_intra=0 / bframes=7 / b_pyramid=2 / b_adapt=2 / b_bias=0 / direct=3 / weightb=1 / open_gop=0 / weightp=2 / keyint=250 / keyint_min=25 / scenecut=40 / intra_refresh=0 / rc=2pass / mbtree=0 / bitrate=2750 / ratetol=1.0 / qcomp=0.63 / qpmin=0 / qpmax=39 / qpstep=4 / cplxblur=20.0 / qblur=0.5 / ip_ratio=1.40 / pb_ratio=1.30 / aq=1:1.00
Язык : English
Default : Да
Forced : Нет
Цветовой диапазон : Limited
Основные цвета : BT.601 PAL
Характеристики трансфера : BT.470 System B, BT.470 System G
Коэффициенты матрицы : BT.601
Аудио
Идентификатор : 2
Формат : AC-3
Формат/Информация : Audio Coding 3
Расширение режима : CM (complete main)
Параметр Endianness формата : Big
Идентификатор кодека : A_AC3
Продолжительность : 1 ч. 17 м.
Вид битрейта : Постоянный
Битрейт : 256 Кбит/сек
Каналы : 2 канала
Расположение каналов : Front: L R
Частота : 48,0 КГц
Метод сжатия : С потерями
Задержка видео : 26 мс.
Размер потока : 142 Мбайт (9%)
Язык : Russian
Default : Да
Forced : Нет

Релиз от:
Автор релиза:



   Похожие торренты   Торрент   Размер 
В этой теме нет новых непрочитанных сообщений. Светлая личность (1989) DVDRip от старпёра

79 | 5

1.09 ГБ

В этой теме нет новых непрочитанных сообщений. Светлая личность (1989) TVRip от Odyzic и MyWorldFilm

9 | 5

1.04 ГБ

В этой теме нет новых непрочитанных сообщений. Илья Ильф, Евгений Петров - Светлая личность (1928) (2012) MP3

67 | 3

212.45 МБ

В этой теме нет новых непрочитанных сообщений. Светлая прохлада / Boz salkyn (2007) DVDRip

77 | 11

1.37 ГБ

В этой теме нет новых непрочитанных сообщений. Личность: неизвестна / ID:A (2011) DVDRip | L1

6 | 1

1.38 ГБ

В этой теме нет новых непрочитанных сообщений. Личность: неизвестна / ID:A (2011) DVDRip | L1

3 | 4

796.05 МБ

В этой теме нет новых непрочитанных сообщений. Личность: неизвестна / ID:A (2011) DVDRip | L1

2 | 3

1.46 ГБ




Вы не можете начинать темы
Вы не можете отвечать на сообщения
Вы не можете редактировать свои сообщения
Вы не можете удалять свои сообщения
Вы не можете добавлять вложения

Перейти:  
Для Мосгорсуда, Роскомнадзора и рекламодателей: mosgorsud-torrent[собачка]yandex.ru
 Вход
ppkBB3cker v.2 © 2008-2014 @ PPK
[ Time : 0.052s | 14 Queries | GZIP : On ]

Торрент трекер RUTOR.IN, Не можете зайти на rutor.org? Какой новый адрес рутор? Какое зеркало рутор? Не работает rutor.org и зеркала? Тогда наш торрент специально для вас. Rutor.in неофициальное зеркало rutor. В случае если у Вас заблокирован rutor или вдруг Вы не можете на него зайти, то Вы без труда сможете скачать бесплатно и без рекламы последние новинки кино, игр, сериалов и прочего у нас, на Rutor.in. Не нужно использовать прокси, чтобы зайти на рутор, достаточно воспользоваться нашим ресурсом. Все новые фильмы, игры, сериалы, книги и музыка за 2013 и 2014 годы через торрент бесплатно. Скачивайте фильмы в хорошем качестве, игры для пк, xbox, playstation без регистрации. У нас вы найдете новые Зарубежные сериалы и Русские сериалы 2013, 2014, 2015 годов. Оставайтесь с нами, качайте любимые фильмы, игры, сериалы, книги и музыку.