img image001 image001 image001 image001 image001 image001 image001 image001 image001 image001 image001 image001 image001 image001 image001

Planets Sun Sun Sun
Статистика раздачи
Автор: Nickolas3434 | Размер: 1.46 ГБ | Добавлен: 10 фев 2016
Раздают: 50    Качают: 5
Скачать торрент
Скачать торрент
Описание торрента

СообщениеДобавлено: 10 фев 2016 

Страна: СССР
Производство: Мосфильм
Жанр: мюзикл, комедия
Год выпуска: 1953
Продолжительность: 01:56:48
Перевод: Не требуется
Cубтитры: нет
Оригинальная аудиодорожка: русский
Режиссер: Татьяна Лукашевич, Борис Ровенских
В ролях:
Вера Васильева, Владимир Ушаков, Виталий Доронин, Галина Кожакина, Владимир Дорофеев, Любовь Кузьмичёва, Кира Канаева, Дмитрий Дубов, Георгий Иванов (II), Александр Прибыловский, Татьяна Пельтцер, Борис Рунге, Михаил Дорохин...
Полный список актёров
Описание:
Два бригадира соседних колхозов влюблены друг в друга. Она - известная ударница труда, он - трудолюбив, но не в меру тщеславен. Происшедшая ссора героев завершилась бы разрывом, если бы соревнование двух колхозов не привело к богатому урожаю в обоих хозяйствах и традиционной осенней свадьбе.





Источник: DVB
Качество видео: SATRip
Формат видео: AVI
Видео: 688x512 (4:3), 25 fps, XviD ~ 1586 kbps avg, 0.180 bit/pixel
Аудио: 48 kHz, Dolby Digital AC3 2.0, 192 kbps
Раздача от:
Общее
Полное имя : E:Tracker2016Свадьба с приданымSvadba.s.pridanym.1953.SATRip_[New-team]_by_AVP_Studio.avi
Формат : AVI
Формат/Информация : Audio Video Interleave
Размер файла : 1,46 Гбайт
Продолжительность : 1 ч. 56 м.
Общий поток : 1788 Кбит/сек
Программа кодирования : VirtualDubMod 1.5.10.3 | www.virtualdub-fr.org || (build 2550/release)
Библиотека кодирования : VirtualDubMod build 2550/release
Видео
Идентификатор : 0
Формат : MPEG-4 Visual
Профиль формата : Advanced Simple@L5
Параметр BVOP формата : 1
Параметр QPel формата : Нет
Параметр GMC формата : Без точки перехода
Параметр матрицы формата : Выборочная
Идентификатор кодека : XVID
Идентификатор кодека/Подсказка : XviD
Продолжительность : 1 ч. 56 м.
Битрейт : 1586 Кбит/сек
Ширина : 688 пикселей
Высота : 512 пикселей
Соотношение сторон : 4:3
Частота кадров : 25,000 кадров/сек
Цветовое пространство : YUV
Субдискретизация насыщенности : 4:2:0
Битовая глубина : 8 бит
Тип развёртки : Прогрессивная
Метод сжатия : С потерями
Бит/(Пиксели*Кадры) : 0.180
Размер потока : 1,29 Гбайт (89%)
Библиотека кодирования : XviD 1.2.1 (UTC 2008-12-04)
Аудио
Идентификатор : 1
Формат : AC-3
Формат/Информация : Audio Coding 3
Расширение режима : CM (complete main)
Параметр Endianness формата : Big
Идентификатор кодека : 2000
Продолжительность : 1 ч. 56 м.
Вид битрейта : Постоянный
Битрейт : 192 Кбит/сек
Каналы : 2 канала
Расположение каналов : Front: L R
Частота : 48,0 КГц
Частота кадров : 31,250 кадров/сек (1536 spf)
Метод сжатия : С потерями
Размер потока : 160 Мбайт (11%)
Выравнивание : Разделение по промежуткам
Продолжительность промежутка : 40 мс. (1,00 видеокадр)
Время предзагрузки промежутка : 500 мс





   Похожие торренты   Торрент   Размер 
В этой теме нет новых непрочитанных сообщений. Свадьба с приданым (1953) SATRip-AVC от New-Team

110 | 16

1.46 ГБ

В этой теме нет новых непрочитанных сообщений. Свадьба с приданым (1953) SATRip от New-Team

25 | 4

1.09 ГБ

В этой теме нет новых непрочитанных сообщений. Свадьба с приданым (1953) DVDRip

214 | 33

751.02 МБ

В этой теме нет новых непрочитанных сообщений. Свадьба с приданым (1953) DVDRip - LTarik

247 | 15

1.99 ГБ

В этой теме нет новых непрочитанных сообщений. Свадьба Кречинского (1953) DVDRip-AVC от New-Team

192 | 6

2.18 ГБ

В этой теме нет новых непрочитанных сообщений. Свадьба Кречинского (1953) DVDRip от New-Team

37 | 12

1.09 ГБ

В этой теме нет новых непрочитанных сообщений. Свадьба Кречинского (1953) DVDRip от New-Team

29 | 3

2.18 ГБ




Вы не можете начинать темы
Вы не можете отвечать на сообщения
Вы не можете редактировать свои сообщения
Вы не можете удалять свои сообщения
Вы не можете добавлять вложения

Перейти:  
Для Мосгорсуда, Роскомнадзора и рекламодателей: mosgorsud-torrent[собачка]yandex.ru
 Вход
ppkBB3cker v.2 © 2008-2014 @ PPK
[ Time : 0.031s | 15 Queries | GZIP : Off ]

Торрент трекер RUTOR.IN, Не можете зайти на rutor.org? Какой новый адрес рутор? Какое зеркало рутор? Не работает rutor.org и зеркала? Тогда наш торрент специально для вас. Rutor.in неофициальное зеркало rutor. В случае если у Вас заблокирован rutor или вдруг Вы не можете на него зайти, то Вы без труда сможете скачать бесплатно и без рекламы последние новинки кино, игр, сериалов и прочего у нас, на Rutor.in. Не нужно использовать прокси, чтобы зайти на рутор, достаточно воспользоваться нашим ресурсом. Все новые фильмы, игры, сериалы, книги и музыка за 2013 и 2014 годы через торрент бесплатно. Скачивайте фильмы в хорошем качестве, игры для пк, xbox, playstation без регистрации. У нас вы найдете новые Зарубежные сериалы и Русские сериалы 2013, 2014, 2015 годов. Оставайтесь с нами, качайте любимые фильмы, игры, сериалы, книги и музыку.