img image001 image001 image001 image001 image001 image001 image001 image001 image001 image001 image001 image001 image001 image001 image001

Planets Sun Sun Sun
Статистика раздачи
Автор: Nickolas3434 | Размер: 744.37 МБ | Добавлен: 11 фев 2016
Раздают: 521    Качают: 8
Скачать торрент
Скачать торрент
Описание торрента

СообщениеДобавлено: 11 фев 2016 

Страна: СССР
Производство: Мосфильм
Жанр: документальный
Год выпуска: 1953
Продолжительность: 00:46:29
Перевод: Не требуется
Cубтитры: нет
Оригинальная аудиодорожка: русский
Режиссер: Сергей Герасимов, Илья Копалин, Григорий Александров
Описание:
Утро 9 марта 1953 года. Серый, печальный день. Низко плывут над кремлевскими башнями облака. Москва, столица нашей Родины, город, который так любил и лелеял товарищ Сталин, город, который неузнаваемо вырос, похорошел и возмужал, — эта Москва замерла в торжественной скорби. Страна провожает своего отца и вождя. От самого Колонного зала, вдоль здания Совета Министров, Исторического музея, вдоль седой Кремлевской стены — бесконечное множество венков. Все они в траурных лентах, на лентах написано: «Дорогому, любимому Иосифу Виссарионовичу Сталину». Венки из живых цветов. Даже морозный воздух не может умертвить цветы — цветы безграничной любви. Ни на одну минуту не затихает в Колонном зале скорбная поступь народа. Мимо гроба медленно, объятые глубокой печалью, текут и текут скорбные потоки советских людей. Три дня и три ночи шли люди через Колонный зал.
Из газетных статей того времени...





Источник: DVB
Качество видео: SATRip-AVC
Формат видео: MKV
Видео: 680->726x544 (4:3), 25 fps, H264 ~ 2045 kbps avg, 0.221 bit/pixel
Аудио: 48 kHz, Dolby Digital AC3 2.0, 192 kbps
Раздача от:
Общее
Полное имя : Velikoe.proshhanie.1953.SATRip-AVC_[New-team]_by_AVP_Studio.mkv
Формат : Matroska
Версия формата : Version 2
Размер файла : 744 Мбайт
Продолжительность : 46 м.
Общий поток : 2239 Кбит/сек
Дата кодирования : UTC 2016-02-09 16:47:09
Программа кодирования : mkvmerge v6.1.0 ('Old Devil') built on Mar 4 2013 09:10:42
Библиотека кодирования : libebml v1.3.0 + libmatroska v1.4.0
Видео
Идентификатор : 1
Формат : AVC
Формат/Информация : Advanced Video Codec
Профиль формата : High@L4.1
Параметр CABAC формата : Да
Параметр ReFrames формата : 10 кадров
Идентификатор кодека : V_MPEG4/ISO/AVC
Продолжительность : 46 м.
Битрейт : 2045 Кбит/сек
Ширина : 680 пикселей
Высота : 544 пикселя
Соотношение сторон : 4:3
Режим частоты кадров : Постоянный
Частота кадров : 25,000 кадров/сек
Цветовое пространство : YUV
Субдискретизация насыщенности : 4:2:0
Битовая глубина : 8 бит
Тип развёртки : Прогрессивная
Бит/(Пиксели*Кадры) : 0.221
Размер потока : 666 Мбайт (89%)
Библиотека кодирования : x264 core 130 r2273 b3065e6
Настройки программы : cabac=1 / ref=10 / deblock=1:-2:-1 / analyse=0x3:0x113 / me=umh / subme=10 / psy=1 / psy_rd=1.00:0.00 / mixed_ref=1 / me_range=32 / chroma_me=1 / trellis=2 / 8x8dct=1 / cqm=0 / deadzone=21,11 / fast_pskip=1 / chroma_qp_offset=-2 / threads=6 / lookahead_threads=1 / sliced_threads=0 / nr=0 / decimate=0 / interlaced=0 / bluray_compat=0 / constrained_intra=0 / bframes=8 / b_pyramid=2 / b_adapt=2 / b_bias=0 / direct=3 / weightb=1 / open_gop=0 / weightp=2 / keyint=250 / keyint_min=25 / scenecut=40 / intra_refresh=0 / rc=2pass / mbtree=0 / bitrate=2045 / ratetol=1.0 / qcomp=0.60 / qpmin=0 / qpmax=69 / qpstep=4 / cplxblur=20.0 / qblur=0.5 / ip_ratio=1.40 / pb_ratio=1.30 / aq=1:1.00
Default : Да
Forced : Нет
Аудио
Идентификатор : 2
Формат : AC-3
Формат/Информация : Audio Coding 3
Расширение режима : CM (complete main)
Параметр Endianness формата : Big
Идентификатор кодека : A_AC3
Продолжительность : 46 м.
Вид битрейта : Постоянный
Битрейт : 192 Кбит/сек
Каналы : 2 канала
Расположение каналов : Front: L R
Частота : 48,0 КГц
Частота кадров : 31,250 кадров/сек (1536 spf)
Метод сжатия : С потерями
Размер потока : 63,8 Мбайт (9%)
Default : Да
Forced : Нет





   Похожие торренты   Торрент   Размер 
В этой теме нет новых непрочитанных сообщений. Великое прощание (1953) SATRip от New-Team

44 | 4

742.87 МБ

В этой теме нет новых непрочитанных сообщений. Николай Левашов - Пресс-конференция «Великое прошлое – Великое будущее» (20.10.2009) CAMRip

36 | 4

468.02 МБ

В этой теме нет новых непрочитанных сообщений. Великое молчание / Великое безмолвие / Il grande silenzio / The Great Silence (1968) DVDRip

10 | 9

1.48 ГБ

В этой теме нет новых непрочитанных сообщений. Великое молчание / Великое безмолвие / Молчун / Il Grande silenzio / The Great silence (1968) DVDRip | SATKUR

70 | 28

1.46 ГБ

В этой теме нет новых непрочитанных сообщений. Судьба Марины (1953) SATRip-AVC от New-Team

31 | 8

1.46 ГБ

В этой теме нет новых непрочитанных сообщений. Застава в горах (1953) SATRip-AVC от New-Team

252 | 26

1.46 ГБ

В этой теме нет новых непрочитанных сообщений. Судьба Марины (1953) SATRip от New-Team

37 | 6

1.46 ГБ




Вы не можете начинать темы
Вы не можете отвечать на сообщения
Вы не можете редактировать свои сообщения
Вы не можете удалять свои сообщения
Вы не можете добавлять вложения

Перейти:  
Для Мосгорсуда, Роскомнадзора и рекламодателей: mosgorsud-torrent[собачка]yandex.ru
 Вход
ppkBB3cker v.2 © 2008-2014 @ PPK
[ Time : 0.022s | 16 Queries | GZIP : Off ]

Торрент трекер RUTOR.IN, Не можете зайти на rutor.org? Какой новый адрес рутор? Какое зеркало рутор? Не работает rutor.org и зеркала? Тогда наш торрент специально для вас. Rutor.in неофициальное зеркало rutor. В случае если у Вас заблокирован rutor или вдруг Вы не можете на него зайти, то Вы без труда сможете скачать бесплатно и без рекламы последние новинки кино, игр, сериалов и прочего у нас, на Rutor.in. Не нужно использовать прокси, чтобы зайти на рутор, достаточно воспользоваться нашим ресурсом. Все новые фильмы, игры, сериалы, книги и музыка за 2013 и 2014 годы через торрент бесплатно. Скачивайте фильмы в хорошем качестве, игры для пк, xbox, playstation без регистрации. У нас вы найдете новые Зарубежные сериалы и Русские сериалы 2013, 2014, 2015 годов. Оставайтесь с нами, качайте любимые фильмы, игры, сериалы, книги и музыку.
cron