img image001 image001 image001 image001 image001 image001 image001 image001 image001 image001 image001 image001 image001 image001 image001

Planets Sun Sun Sun
Статистика раздачи
Автор: Nickolas3434 | Размер: 1.46 ГБ | Добавлен: 12 фев 2016
Раздают: 199    Качают: 5
Скачать торрент
Скачать торрент
Описание торрента

СообщениеДобавлено: 12 фев 2016 

Страна: СССР
Производство: Мосфильм
Жанр: драма, биография
Год выпуска: 1953
Продолжительность: 03:10:50 (01:41:13 + 01:29:37)
Перевод: Не требуется
Cубтитры: нет
Оригинальная аудиодорожка: русский
Режиссер: Михаил Ромм
В ролях:
Иван Переверзев, Борис Ливанов, Николай Свободин, Николай Чистяков, Геннадий Юдин, Владимир Дружников, Алексей Алексеев, Сергей Бондарчук, Михаил Пуговкин, Николай Хрящиков, Георгий Юматов, Павел Волков, Ольга Жизнева, Вадим Васильев (V), Николай Волков (старший), Иван Соловьёв, Владимир Этуш, Павел Шпрингфельд, Григорий Шпигель, Вахтанг Туманов, Лев Фенин...
Полный список актёров
Описание:
Историко-биографический фильм о создании в 1779 году русского флота на Черном море под руководством великого русского флотоводца и патриота России - Федора Ушакова (1744-1817). Продолжение - фильм "Корабли штурмуют бастионы".





Источник: DVD5 R5
Качество видео: DVDRip
Формат видео: AVI
Видео: 576x432 (4:3), 25 fps, XviD ~ 957 kbps avg, 0.154 bit/pixel
Аудио: 48 kHz, MP3 2.0, 128 kbps
Раздача от:
Общее
Полное имя : Admiral.Ushakov.1953.DVDRip-1.46_[New-team]_by_AVP_Studio1.avi
Формат : AVI
Формат/Информация : Audio Video Interleave
Размер файла : 792 Мбайт
Продолжительность : 1 ч. 41 м.
Общий поток : 1094 Кбит/сек
Программа кодирования : VirtualDubMod 1.5.10.3 | www.virtualdub-fr.org || (build 2550/release)
Библиотека кодирования : VirtualDubMod build 2550/release
Видео
Идентификатор : 0
Формат : MPEG-4 Visual
Профиль формата : Advanced Simple@L5
Параметр BVOP формата : 1
Параметр QPel формата : Нет
Параметр GMC формата : Без точки перехода
Параметр матрицы формата : Выборочная
Идентификатор кодека : XVID
Идентификатор кодека/Подсказка : XviD
Продолжительность : 1 ч. 41 м.
Битрейт : 957 Кбит/сек
Ширина : 576 пикселей
Высота : 432 пикселя
Соотношение сторон : 4:3
Частота кадров : 25,000 кадров/сек
Цветовое пространство : YUV
Субдискретизация насыщенности : 4:2:0
Битовая глубина : 8 бит
Тип развёртки : Прогрессивная
Метод сжатия : С потерями
Бит/(Пиксели*Кадры) : 0.154
Размер потока : 692 Мбайт (87%)
Библиотека кодирования : XviD 1.2.1 (UTC 2008-12-04)
Аудио
Идентификатор : 1
Формат : MPEG Audio
Версия формата : Version 1
Профиль формата : Layer 3
Идентификатор кодека : 55
Идентификатор кодека/Подсказка : MP3
Продолжительность : 1 ч. 41 м.
Вид битрейта : Постоянный
Битрейт : 128 Кбит/сек
Каналы : 2 канала
Частота : 48,0 КГц
Метод сжатия : С потерями
Размер потока : 92,7 Мбайт (12%)
Выравнивание : Соединение по промежуткам
Продолжительность промежутка : 40 мс. (1,00 видеокадр)
Время предзагрузки промежутка : 504 мс.
Библиотека кодирования : LAME3.99r
Настройки программы : -m s -V 4 -q 2 -lowpass 17 -b 128





   Похожие торренты   Торрент   Размер 
В этой теме нет новых непрочитанных сообщений. Адмирал Ушаков (1953) DVDRip от New-Team

45 | 15

2.9 ГБ

В этой теме нет новых непрочитанных сообщений. Адмирал Ушаков (1953) DVDRip-AVC от New-Team

140 | 14

2.91 ГБ

В этой теме нет новых непрочитанных сообщений. Адмирал Ушаков (1953) DVDRip

455 | 30

1.37 ГБ

В этой теме нет новых непрочитанных сообщений. Адмирал Ушаков (1953) DVD5

72 | 36

4.33 ГБ

В этой теме нет новых непрочитанных сообщений. Жизнь - Родине, душа - Богу. Адмирал Федор Ушаков (2001) TVRip

3 | 11

697.43 МБ

В этой теме нет новых непрочитанных сообщений. Адмирал Нахимов (1946) DVDRip от New-Team

12 | 11

743.59 МБ

В этой теме нет новых непрочитанных сообщений. Адмирал Нахимов (1946) DVDRip от New-Team

28 | 7

1.46 ГБ




Вы не можете начинать темы
Вы не можете отвечать на сообщения
Вы не можете редактировать свои сообщения
Вы не можете удалять свои сообщения
Вы не можете добавлять вложения

Перейти:  
Для Мосгорсуда, Роскомнадзора и рекламодателей: mosgorsud-torrent[собачка]yandex.ru
 Вход
ppkBB3cker v.2 © 2008-2014 @ PPK
[ Time : 0.022s | 15 Queries | GZIP : On ]

Торрент трекер RUTOR.IN, Не можете зайти на rutor.org? Какой новый адрес рутор? Какое зеркало рутор? Не работает rutor.org и зеркала? Тогда наш торрент специально для вас. Rutor.in неофициальное зеркало rutor. В случае если у Вас заблокирован rutor или вдруг Вы не можете на него зайти, то Вы без труда сможете скачать бесплатно и без рекламы последние новинки кино, игр, сериалов и прочего у нас, на Rutor.in. Не нужно использовать прокси, чтобы зайти на рутор, достаточно воспользоваться нашим ресурсом. Все новые фильмы, игры, сериалы, книги и музыка за 2013 и 2014 годы через торрент бесплатно. Скачивайте фильмы в хорошем качестве, игры для пк, xbox, playstation без регистрации. У нас вы найдете новые Зарубежные сериалы и Русские сериалы 2013, 2014, 2015 годов. Оставайтесь с нами, качайте любимые фильмы, игры, сериалы, книги и музыку.