img image001 image001 image001 image001 image001 image001 image001 image001 image001 image001 image001 image001 image001 image001 image001

Planets Sun Sun Sun
Статистика раздачи
Автор: Nickolas3434 | Размер: 1.46 ГБ | Добавлен: 14 фев 2016
Раздают: 367    Качают: 54
Скачать торрент
Скачать торрент
Описание торрента

СообщениеДобавлено: 14 фев 2016 


Информация о фильме
Оригинальное название: Холодный фронт
Год выпуска: 2015
Жанр: Триллер, мелодрама
Выпущено: Россия, Франция, Hype Film, ИнкФильм, Leelame Production
Режиссер: Роман Волобуев
В ролях: Светлана Устинова, Даша Чаруша, Александр Молочников, Полина Аскери, Кристоф Ле Тессон, Татьяна Абраменко, Александра Боярская
О фильме: В канун Нового года происходит два вроде бы не связанных между собой события: недалеко от дома героев прибой выбрасывает на берег тушу неизвестного науке животного, а тем же вечером Илья встречает в окрестностях Машу — русскую девушку, которая якобы случайно сошла с поезда не на той станции и которой негде ночевать. С Машей явно что-то не так, но Илья и Саша, увлеченные выяснением отношений, сперва не замечают зловещих странностей в поведении незванной гостьи.

Примечание: Сохранены оригинальные чаптеры как на исходном WEB-DL.
За настройки спасибо:
Релиз: Без рекламы
Качество: WEB-DLRip-AVC
Видео: MPEG-4 AVC, 1876 Кбит/с, 720x300
Аудио: AC3, 6 ch, 384 Кбит/с
Размер: 1.46 ГБ
Продолжительность: 01:32:22
Язык: Русский
Субтитры: Русские
raw [info]: 720x300p 1:1 @ 24/1 fps (cfr)
x264 [info]: using SAR=1/1
x264 [info]: using cpu capabilities: MMX2 SSE2Fast SSSE3 SSE4.2 AVX
x264 [info]: profile High, level 4.1
x264 [info]: frame I:717 Avg QP: 9.13 size: 57183
x264 [info]: frame P:31923 Avg QP:12.40 size: 22037
x264 [info]: frame B:100373 Avg QP:14.85 size: 5529
x264 [info]: consecutive B-frames: 1.4% 3.4% 5.6% 56.0% 10.0% 16.8% 1.9% 1.8% 0.5% 0.8% 0.2% 0.3% 0.1% 0.1% 0.1% 0.1% 0.8%
Общее
Уникальный идентификатор : 230525933777882703292913317124657387354 (0xAD6DAE0CC043B52DB6C44E8D5FEC175A)
Полное имя : D:ВидеоХолодный фронт.2015.O.WEB-DLRip-AVC by Vovan366(ExKinoRay).mkv
Формат : Matroska
Версия формата : Version 4 / Version 2
Размер файла : 1,46 Гбайт
Продолжительность : 1 ч. 32 м.
Общий поток : 2261 Кбит/сек
Название фильма : Холодный фронт.2015.O.WEB-DLRip-AVC by Vovan366(ExKinoRay)
Дата кодирования : UTC 2016-02-13 05:49:37
Программа кодирования : mkvmerge v8.8.0 ('Wind at my back') 64bit
Библиотека кодирования : libebml v1.3.3 + libmatroska v1.4.4
DURATION : 01:32:22.112000000
NUMBER_OF_FRAMES : 173191
NUMBER_OF_BYTES : 266021376
_STATISTICS_WRITING_APP : mkvmerge v8.8.0 ('Wind at my back') 64bit
_STATISTICS_WRITING_DATE_UTC : 2016-02-13 05:49:37
_STATISTICS_TAGS : BPS DURATION NUMBER_OF_FRAMES NUMBER_OF_BYTES
Видео
Идентификатор : 1
Формат : AVC
Формат/Информация : Advanced Video Codec
Профиль формата : High@L4.1
Параметр CABAC формата : Да
Параметр ReFrames формата : 16 кадров
Идентификатор кодека : V_MPEG4/ISO/AVC
Продолжительность : 1 ч. 32 м.
Битрейт : 1876 Кбит/сек
Ширина : 720 пикселей
Высота : 300 пикселей
Соотношение сторон : 2,40:1
Режим частоты кадров : Постоянный
Частота кадров : 24,000 кадра/сек
Цветовое пространство : YUV
Субдискретизация насыщенности : 4:2:0
Битовая глубина : 8 бит
Тип развёртки : Прогрессивная
Бит/(Пиксели*Кадры) : 0.362
Размер потока : 1,18 Гбайт (81%)
Заголовок : by Vovan366(ExKinoRay)
Библиотека кодирования : x264 core 148 r2638 7599210
Настройки программы : cabac=1 / ref=16 / deblock=1:-2:-2 / analyse=0x3:0x113 / me=umh / subme=10 / psy=1 / psy_rd=1.00:0.10 / mixed_ref=1 / me_range=32 / chroma_me=1 / trellis=2 / 8x8dct=1 / cqm=0 / deadzone=21,11 / fast_pskip=0 / chroma_qp_offset=-3 / threads=6 / lookahead_threads=1 / sliced_threads=0 / nr=0 / decimate=0 / interlaced=0 / bluray_compat=0 / constrained_intra=0 / bframes=16 / b_pyramid=2 / b_adapt=2 / b_bias=0 / direct=3 / weightb=1 / open_gop=0 / weightp=2 / keyint=250 / keyint_min=24 / scenecut=40 / intra_refresh=0 / rc_lookahead=40 / rc=2pass / mbtree=1 / bitrate=1876 / ratetol=1.0 / qcomp=0.60 / qpmin=0 / qpmax=69 / qpstep=4 / cplxblur=20.0 / qblur=0.5 / ip_ratio=1.40 / aq=1:1.00
Default : Да
Forced : Нет
Основные цвета : BT.601 PAL
Характеристики трансфера : BT.470 System B, BT.470 System G
Коэффициенты матрицы : BT.601
Аудио
Идентификатор : 2
Формат : AC-3
Формат/Информация : Audio Coding 3
Расширение режима : CM (complete main)
Параметр Endianness формата : Big
Идентификатор кодека : A_AC3
Продолжительность : 1 ч. 32 м.
Вид битрейта : Постоянный
Битрейт : 384 Кбит/сек
Каналы : 6 каналов
Расположение каналов : Front: L C R, Side: L R, LFE
Частота : 48,0 КГц
Битовая глубина : 16 бит
Метод сжатия : С потерями
Размер потока : 254 Мбайт (17%)
Язык : Russian
Default : Да
Forced : Да
Текст
Идентификатор : 3
Формат : UTF-8
Идентификатор кодека : S_TEXT/UTF8
Идентификатор кодека/Информация : UTF-8 Plain Text
Default : Да
Forced : Да
Меню
00:00:00.000 : en:Глава 1
00:05:36.000 : en:Глава 2
00:11:04.958 : en:Глава 3
00:16:24.083 : en:Глава 4
00:21:52.416 : en:Глава 5
00:27:51.249 : en:Глава 6
00:33:01.624 : en:Глава 7
00:40:47.290 : en:Глава 8
00:46:02.290 : en:Глава 9
00:52:00.081 : en:Глава 10
00:57:57.164 : en:Глава 11
01:03:23.997 : en:Глава 12
01:10:01.205 : en:Глава 13
01:15:47.705 : en:Глава 14
01:21:10.663 : en:Глава 15
01:28:03.038 : en:Глава 16



Релиз от:
Rip by: Vovan366



   Похожие торренты   Торрент   Размер 
В этой теме нет новых непрочитанных сообщений. Холодный фронт (2015) WEB-DLRip от Scarabey | iTunes

467 | 78

1.45 ГБ

В этой теме нет новых непрочитанных сообщений. Холодный фронт (2015) WEB-DLRip от MegaPeer | iTunes

363 | 33

743.05 МБ

В этой теме нет новых непрочитанных сообщений. Холодный фронт (2015) WEB-DLRip от MegaPeer | iTunes

1855 | 132

1.45 ГБ

В этой теме нет новых непрочитанных сообщений. Холодный фронт (2015) WEB-DLRip от MegaPeer | iTunes

917 | 36

1.45 ГБ

В этой теме нет новых непрочитанных сообщений. Холодный фронт (2015) WEB-DLRip от MegaPeer | iTunes

550 | 73

743.05 МБ

В этой теме нет новых непрочитанных сообщений. Холодный фронт (2015) WEB-DL 720p | iTunes

88 | 11

2.8 ГБ

В этой теме нет новых непрочитанных сообщений. Холодный фронт (2015) WEB-DL 1080p | iTunes

875 | 56

3.06 ГБ




Вы не можете начинать темы
Вы не можете отвечать на сообщения
Вы не можете редактировать свои сообщения
Вы не можете удалять свои сообщения
Вы не можете добавлять вложения

Перейти:  
Для Мосгорсуда, Роскомнадзора и рекламодателей: mosgorsud-torrent[собачка]yandex.ru
 Вход
ppkBB3cker v.2 © 2008-2014 @ PPK
[ Time : 0.083s | 14 Queries | GZIP : Off ]

Торрент трекер RUTOR.IN, Не можете зайти на rutor.org? Какой новый адрес рутор? Какое зеркало рутор? Не работает rutor.org и зеркала? Тогда наш торрент специально для вас. Rutor.in неофициальное зеркало rutor. В случае если у Вас заблокирован rutor или вдруг Вы не можете на него зайти, то Вы без труда сможете скачать бесплатно и без рекламы последние новинки кино, игр, сериалов и прочего у нас, на Rutor.in. Не нужно использовать прокси, чтобы зайти на рутор, достаточно воспользоваться нашим ресурсом. Все новые фильмы, игры, сериалы, книги и музыка за 2013 и 2014 годы через торрент бесплатно. Скачивайте фильмы в хорошем качестве, игры для пк, xbox, playstation без регистрации. У нас вы найдете новые Зарубежные сериалы и Русские сериалы 2013, 2014, 2015 годов. Оставайтесь с нами, качайте любимые фильмы, игры, сериалы, книги и музыку.