img image001 image001 image001 image001 image001 image001 image001 image001 image001 image001 image001 image001 image001 image001 image001

Planets Sun Sun Sun
Статистика раздачи
Автор: Nickolas3434 | Размер: 1.06 ГБ | Добавлен: 14 фев 2016
Раздают: 202    Качают: 15
Скачать торрент
Скачать торрент
Описание торрента

СообщениеДобавлено: 14 фев 2016 


Информация о фильме
Название: Случай в квадрате 36-80
Год выхода: 1982
Жанр: Боевик, драма
Режиссер: Михаил Туманишвили
В ролях: Борис Щербаков, Михай Волонтир, Владимир Седов, Анатолий Кузнецов, Омар Волмер, Паул Буткевич, Витаутас Томкус, Ивар Калныньш, Валерий Малышев, Борис Токарев
О фильме:
В Северной Атлантике, неподалеку от района, где проводят учения советские корабли Военно-Морского Флота, терпит аварию подводная лодка с вышедшим из строя атомным реактором. Патрульная служба ВМС США пытается сбить советский самолет-спасатель, а тем временем с неуправляемой лодки в сторону советских кораблей уже направляются две крылатые ракеты...
Страна: СССР, Мосфильм
Продолжительность: 01:09:27
Перевод: не требуется
Файл
Кодек: x264
Качество: DVDRip-AVC
Видео: MPEG-4 AVC, 2000 Кбит/с, 698x572@744x572
Звук: AC3, 2 ch, 192 Кбит/с

raw [info]: 698x572p 16:15 @ 25/1 fps (cfr)
x264 [info]: using SAR=16/15
x264 [info]: using cpu capabilities: MMX2 SSE2Fast SSSE3 SSE4.2 AVX
x264 [info]: profile High, level 4.1
x264 [info]: frame I:633 Avg QP:14.77 size: 55785
x264 [info]: frame P:23100 Avg QP:18.22 size: 22518
x264 [info]: frame B:80466 Avg QP:20.02 size: 6046
=============================================================================================================
Общее
Уникальный идентификатор : 237334287843633375753732709580379977179 (0xB28CEBD25F7D3ED4B2DED1608096F5DB)
Полное имя : D:Случай в квадрате 36-80_1982-DVDRip-AVC.mkv
Формат : Matroska
Версия формата : Version 2
Размер файла : 1,06 Гбайт
Продолжительность : 1 ч. 9 м.
Общий поток : 2194 Кбит/сек
Дата кодирования : UTC 2016-02-12 09:44:00
Программа кодирования : mkvmerge v5.8.0 ('No Sleep / Pillow') built on Sep 2 2012 15:37:04
Библиотека кодирования : libebml v1.2.3 + libmatroska v1.3.0
Видео
Идентификатор : 1
Формат : AVC
Формат/Информация : Advanced Video Codec
Профиль формата : High@L4.1
Параметр CABAC формата : Да
Параметр ReFrames формата : 15 кадров
Идентификатор кодека : V_MPEG4/ISO/AVC
Продолжительность : 1 ч. 9 м.
Битрейт : 2000 Кбит/сек
Ширина : 698 пикселей
Высота : 572 пикселя
Соотношение сторон : 4:3
Соотношение сторон в оригинале : 4:3
Режим частоты кадров : Постоянный
Частота кадров : 25,000 кадров/сек
Цветовое пространство : YUV
Субдискретизация насыщенности : 4:2:0
Битовая глубина : 8 бит
Тип развёртки : Прогрессивная
Бит/(Пиксели*Кадры) : 0.200
Размер потока : 973 Мбайт (89%)
Библиотека кодирования : x264 core 148 r2638 7599210
Настройки программы : cabac=1 / ref=15 / deblock=1:-2:-2 / analyse=0x3:0x133 / me=umh / subme=10 / psy=1 / psy_rd=1.05:0.15 / mixed_ref=1 / me_range=32 / chroma_me=1 / trellis=2 / 8x8dct=1 / cqm=0 / deadzone=21,11 / fast_pskip=0 / chroma_qp_offset=-3 / threads=12 / lookahead_threads=2 / sliced_threads=0 / nr=0 / decimate=0 / interlaced=0 / bluray_compat=0 / constrained_intra=0 / bframes=9 / b_pyramid=2 / b_adapt=2 / b_bias=0 / direct=3 / weightb=1 / open_gop=0 / weightp=2 / keyint=250 / keyint_min=25 / scenecut=40 / intra_refresh=0 / rc=2pass / mbtree=0 / bitrate=2000 / ratetol=1.0 / qcomp=0.60 / qpmin=0 / qpmax=39 / qpstep=4 / cplxblur=20.0 / qblur=0.5 / ip_ratio=1.40 / pb_ratio=1.30 / aq=1:1.00
Язык : English
Default : Да
Forced : Нет
Основные цвета : BT.601 PAL
Характеристики трансфера : BT.470 System B, BT.470 System G
Коэффициенты матрицы : BT.601
Аудио
Идентификатор : 2
Формат : AC-3
Формат/Информация : Audio Coding 3
Расширение режима : CM (complete main)
Параметр Endianness формата : Big
Идентификатор кодека : A_AC3
Продолжительность : 1 ч. 9 м.
Вид битрейта : Постоянный
Битрейт : 192 Кбит/сек
Каналы : 2 канала
Расположение каналов : Front: L R
Частота : 48,0 КГц
Битовая глубина : 16 бит
Метод сжатия : С потерями
Размер потока : 95,4 Мбайт (9%)
Язык : Russian
Default : Да
Forced : Нет

Релиз от:
Автор релиза:



   Похожие торренты   Торрент   Размер 
В этой теме нет новых непрочитанных сообщений. Случай в квадрате 36-80 (1982) DVDRip от New-Team

26 | 14

743.62 МБ

В этой теме нет новых непрочитанных сообщений. Случай в квадрате 36-80 (1982) DVDRip-AVC от New-Team

87 | 18

744.69 МБ

В этой теме нет новых непрочитанных сообщений. Случай в квадрате 36-80 (1982) DVDRip от Alekxandr48

4 | 4

700.37 МБ

В этой теме нет новых непрочитанных сообщений. Случай в квадрате 36-80 (1982) DVD5

14 | 2

3.91 ГБ

В этой теме нет новых непрочитанных сообщений. Случай в квадрате 36-80 (1982) HDTVRip 1080i

24 | 4

2.58 ГБ

В этой теме нет новых непрочитанных сообщений. В квадрате 45 (1955) DVDRip-AVC

69 | 18

1.3 ГБ

В этой теме нет новых непрочитанных сообщений. Инспектор ГАИ (1982) DVDRip-AVC от ExKinoRay

200 | 44

1.7 ГБ




Вы не можете начинать темы
Вы не можете отвечать на сообщения
Вы не можете редактировать свои сообщения
Вы не можете удалять свои сообщения
Вы не можете добавлять вложения

Перейти:  
Для Мосгорсуда, Роскомнадзора и рекламодателей: mosgorsud-torrent[собачка]yandex.ru
 Вход
ppkBB3cker v.2 © 2008-2014 @ PPK
[ Time : 0.035s | 14 Queries | GZIP : Off ]

Торрент трекер RUTOR.IN, Не можете зайти на rutor.org? Какой новый адрес рутор? Какое зеркало рутор? Не работает rutor.org и зеркала? Тогда наш торрент специально для вас. Rutor.in неофициальное зеркало rutor. В случае если у Вас заблокирован rutor или вдруг Вы не можете на него зайти, то Вы без труда сможете скачать бесплатно и без рекламы последние новинки кино, игр, сериалов и прочего у нас, на Rutor.in. Не нужно использовать прокси, чтобы зайти на рутор, достаточно воспользоваться нашим ресурсом. Все новые фильмы, игры, сериалы, книги и музыка за 2013 и 2014 годы через торрент бесплатно. Скачивайте фильмы в хорошем качестве, игры для пк, xbox, playstation без регистрации. У нас вы найдете новые Зарубежные сериалы и Русские сериалы 2013, 2014, 2015 годов. Оставайтесь с нами, качайте любимые фильмы, игры, сериалы, книги и музыку.