img image001 image001 image001 image001 image001 image001 image001 image001 image001 image001 image001 image001 image001 image001 image001

Planets Sun Sun Sun
Статистика раздачи
Автор: Nickolas3434 | Размер: 2.84 ГБ | Добавлен: 15 фев 2016
Раздают: 3533    Качают: 133
Скачать торрент
Скачать торрент
Описание торрента

СообщениеДобавлено: 15 фев 2016 


Информация о фильме
Оригинальное название: Самый лучший день
Год выпуска: 2015
Жанр: Комедия, музыка
Выпущено: Россия, Базелевс Продакшн
Режиссер: Жора Крыжовников
В ролях: Дмитрий Нагиев, Юлия Александрова, Ольга Серябкина, Инна Чурикова, Михаил Боярский, Елена Яковлева, Владислав Ветров, Валентина Мазунина, Ян Цапник, Андрей Малахов, Толепберген Байсакалов, Юлия Синицына, Юлия Сулес, Александр Иванков, Андрей Ребенков, Михаил Павлик, Сергей Лавыгин, Михаил Черкасов, Илья Рубанов
О фильме: Успешному сотруднику ДПС Пете Васютину уже давно пора заводить семью, а он живет с мамой, хозяйкой придорожного кафе. И невеста есть — королева бензоколонки, кассирша Оля. В тот самый день, когда Петя решает сделать Оле предложение, в его служебную машину врезается пьяная поп-звезда Алина Шёпот. Чтобы избежать наказания, Алина решает соблазнить Петю…

Файл
Качество: BDRip (AVC)
Видео: MPEG-4 AVC, 3347 Кбит/с, 1024x556, 24 кадр/с
Аудио: AC3, 6 ch, 448 Кбит/с
Размер: 2.84 ГБ
Продолжительность: 01:47:05
Язык: Русский
Озвучивание - (Лицензия)
Сохранены оригинальные чаптеры как на Blu-Ray.
x264 [info]: frame I:2425 Avg QP:19.10 size: 75925
x264 [info]: frame P:79224 Avg QP:21.93 size: 25390
x264 [info]: frame B:72543 Avg QP:22.78 size: 6783
x264 [info]: consecutive B-frames: 21.3% 43.2% 18.6% 12.0% 3.7% 0.2% 0.1% 0.0% 0.1% 0.9%
x264 [info]: mb I I16..4: 4.7% 73.4% 21.9%
x264 [info]: mb P I16..4: 1.2% 10.7% 1.6% P16..4: 31.8% 33.7% 13.0% 2.6% 0.3% skip: 4.9%
x264 [info]: mb B I16..4: 0.2% 0.7% 0.1% B16..8: 33.1% 19.5% 3.0% direct: 5.1% skip:38.3% L0:34.9% L1:45.0% BI:20.1%
x264 [info]: 8x8 transform intra:77.5% inter:56.2%
x264 [info]: direct mvs spatial:98.3% temporal:1.7%
x264 [info]: coded y,uvDC,uvAC intra: 81.2% 82.0% 55.1% inter: 31.3% 30.0% 16.4%
x264 [info]: i16 v,h,dc,p: 26% 22% 5% 48%
x264 [info]: i8 v,h,dc,ddl,ddr,vr,hd,vl,hu: 11% 9% 8% 9% 12% 12% 13% 12% 15%
x264 [info]: i4 v,h,dc,ddl,ddr,vr,hd,vl,hu: 14% 10% 7% 7% 13% 13% 13% 10% 12%
x264 [info]: i8c dc,h,v,p: 39% 26% 19% 16%
x264 [info]: Weighted P-Frames: Y:4.9% UV:1.6%
x264 [info]: ref P L0: 60.1% 15.7% 10.7% 4.3% 2.9% 2.1% 1.6% 1.0% 0.8% 0.6% 0.2% 0.0%
x264 [info]: ref B L0: 81.8% 9.9% 3.9% 1.6% 1.1% 0.8% 0.6% 0.3% 0.1%
x264 [info]: ref B L1: 95.8% 4.2%
x264 [info]: kb/s:3346.68

Общее
Уникальный идентификатор : 206758442054597398210686768028549891516 (0x9B8C3A3C2E2F8DC193E934D17297C5BC)
Полное имя : D:ЗагрузкиSamij.Luchshij.Den.2015.x264.BDRip.(AVC).ExKinoRay.mkv
Формат : Matroska
Версия формата : Version 2
Размер файла : 2,84 Гбайт
Продолжительность : 1 ч. 47 м.
Общий поток : 3796 Кбит/сек
Название фильма : Самый лучший день.2015.Rip by: ollan
Дата кодирования : UTC 2016-02-14 07:44:25
Программа кодирования : mkvmerge v5.6.0 ('Kenya Kane') built on May 27 2012 16:44:04
Библиотека кодирования : libebml v1.2.3 + libmatroska v1.3.0
Видео
Идентификатор : 1
Формат : AVC
Формат/Информация : Advanced Video Codec
Профиль формата : High@L4.1
Параметр CABAC формата : Да
Параметр ReFrames формата : 10 кадров
Идентификатор кодека : V_MPEG4/ISO/AVC
Продолжительность : 1 ч. 47 м.
Битрейт : 3347 Кбит/сек
Ширина : 1024 пикселя
Высота : 556 пикселей
Соотношение сторон : 1,85:1
Режим частоты кадров : Постоянный
Частота кадров : 24,000 кадра/сек
Цветовое пространство : YUV
Субдискретизация насыщенности : 4:2:0
Битовая глубина : 8 бит
Тип развёртки : Прогрессивная
Бит/(Пиксели*Кадры) : 0.245
Размер потока : 2,45 Гбайт (86%)
Библиотека кодирования : x264 core 146 r2538 121396c
Настройки программы : cabac=1 / ref=10 / deblock=1:-3:-3 / analyse=0x3:0x133 / me=umh / subme=11 / psy=1 / psy_rd=1.00:0.07 / mixed_ref=1 / me_range=48 / chroma_me=1 / trellis=2 / 8x8dct=1 / cqm=0 / deadzone=21,11 / fast_pskip=0 / chroma_qp_offset=-3 / threads=12 / lookahead_threads=1 / sliced_threads=0 / nr=0 / decimate=0 / interlaced=0 / bluray_compat=0 / constrained_intra=0 / bframes=9 / b_pyramid=2 / b_adapt=1 / b_bias=0 / direct=3 / weightb=1 / open_gop=0 / weightp=2 / keyint=240 / keyint_min=23 / scenecut=40 / intra_refresh=0 / rc_lookahead=40 / rc=2pass / mbtree=0 / bitrate=3347 / ratetol=1.0 / qcomp=0.60 / qpmin=0 / qpmax=69 / qpstep=4 / cplxblur=20.0 / qblur=0.5 / vbv_maxrate=50000 / vbv_bufsize=62500 / nal_hrd=none / filler=0 / ip_ratio=1.40 / pb_ratio=1.30 / aq=1:1.00
Язык : Russian
Default : Да
Forced : Нет
Аудио
Идентификатор : 2
Формат : AC-3
Формат/Информация : Audio Coding 3
Расширение режима : CM (complete main)
Параметр Endianness формата : Big
Идентификатор кодека : A_AC3
Продолжительность : 1 ч. 47 м.
Вид битрейта : Постоянный
Битрейт : 448 Кбит/сек
Каналы : 6 каналов
Расположение каналов : Front: L C R, Side: L R, LFE
Частота : 48,0 КГц
Битовая глубина : 16 бит
Метод сжатия : С потерями
Размер потока : 343 Мбайт (12%)
Заголовок : Лицензия
Язык : Russian
Default : Да
Forced : Нет
Меню
00:00:00.000 : ru:Chapter 01
00:09:06.958 : ru:Chapter 02
00:19:34.291 : ru:Chapter 03
00:28:42.625 : ru:Chapter 04
00:37:55.125 : ru:Chapter 05
00:47:10.416 : ru:Chapter 06
00:54:46.833 : ru:Chapter 07
01:03:51.750 : ru:Chapter 08
01:11:21.583 : ru:Chapter 09
01:21:14.916 : ru:Chapter 10
01:29:51.375 : ru:Chapter 11
01:40:00.083 : ru:Chapter 12
01:47:04.625 : ru:Chapter 13





Релиз от: Rip by:



   Похожие торренты   Торрент   Размер 
В этой теме нет новых непрочитанных сообщений. Агенты А.Н.К.Л. / The Man from U.N.C.L.E. (2015) BDRip-AVC от ExKinoRay | Лицензия

3452 | 146

2.26 ГБ

В этой теме нет новых непрочитанных сообщений. Богатырша (2015) BDRip 1080p от ExKinoRay | Лицензия

603 | 27

7.68 ГБ

В этой теме нет новых непрочитанных сообщений. Молодость / Youth (2015) BDRip-AVC от ExKinoRay | Лицензия

181 | 21

2.93 ГБ

В этой теме нет новых непрочитанных сообщений. Лазурный берег / By the Sea (2015) BDRip от ExKinoRay | Лицензия

158 | 8

1.46 ГБ

В этой теме нет новых непрочитанных сообщений. Виселица / The Gallows (2015) BDRip-AVC от ExKinoRay | Лицензия

189 | 26

2.03 ГБ

В этой теме нет новых непрочитанных сообщений. Аномализа / Anomalisa (2015) BDRip от ExKinoRay | Лицензия

37 | 1

1.46 ГБ

В этой теме нет новых непрочитанных сообщений. Батальонъ (2015) BDRip 1080p от ExKinoRay | Лицензия

897 | 97

9.94 ГБ




Вы не можете начинать темы
Вы не можете отвечать на сообщения
Вы не можете редактировать свои сообщения
Вы не можете удалять свои сообщения
Вы не можете добавлять вложения

Перейти:  
Для Мосгорсуда, Роскомнадзора и рекламодателей: mosgorsud-torrent[собачка]yandex.ru
 Вход
ppkBB3cker v.2 © 2008-2014 @ PPK
[ Time : 0.031s | 14 Queries | GZIP : On ]

Торрент трекер RUTOR.IN, Не можете зайти на rutor.org? Какой новый адрес рутор? Какое зеркало рутор? Не работает rutor.org и зеркала? Тогда наш торрент специально для вас. Rutor.in неофициальное зеркало rutor. В случае если у Вас заблокирован rutor или вдруг Вы не можете на него зайти, то Вы без труда сможете скачать бесплатно и без рекламы последние новинки кино, игр, сериалов и прочего у нас, на Rutor.in. Не нужно использовать прокси, чтобы зайти на рутор, достаточно воспользоваться нашим ресурсом. Все новые фильмы, игры, сериалы, книги и музыка за 2013 и 2014 годы через торрент бесплатно. Скачивайте фильмы в хорошем качестве, игры для пк, xbox, playstation без регистрации. У нас вы найдете новые Зарубежные сериалы и Русские сериалы 2013, 2014, 2015 годов. Оставайтесь с нами, качайте любимые фильмы, игры, сериалы, книги и музыку.