img image001 image001 image001 image001 image001 image001 image001 image001 image001 image001 image001 image001 image001 image001 image001

Planets Sun Sun Sun
Статистика раздачи
Автор: Nickolas3434 | Размер: 2.19 ГБ | Добавлен: 15 фев 2016
Раздают: 96    Качают: 15
Скачать торрент
Скачать торрент
Описание торрента

СообщениеДобавлено: 15 фев 2016 


Информация о фильме
Название: Воскресенье, половина седьмого
Год выхода: 1988
Жанр: Детектив, криминальный
Режиссер: Вадим Зобин
В ролях: Василий Фунтиков, Андрей Степанов, Владимир Юматов, Елена Костина, Гелена Кирик, Маргарита Борисова, Маргарита Шубина, Владимир Ильин, Георгий Клюев, Виталий Тараничев, Михаил Палатник, Елена Крейдик, Марина Пресс, Петр Ступин, Владимир Топцов, Владимир Зайцев, Анатолий Иванов, Галина Анисимова, Галина Булкина, Сергей Быстрицкий, Елена Богданова, Алексей Ванин, Майя Ивашкевич, Галина Комарова, Антонина Кончакова, Наталья Назарова, Даниил Нетребин, Светлана Николаева, Павел Ремезов, Владимир Суворов, Игорь Фокин, Валентин Буров, Николай Волков, Галина Гладкова, Галина Добровольская, Марина Зотова, Виктор Карташов, Владимир Николенко, Клавдия Козлёнкова, Александр Пермяков, Наташа Гаврилова, Нелли Корнеева
О фильме: Молодому юристу Сергею Крашенинникову поручают дело o гибeли дeвyшки. Расспрашивая людей, видевших девушку в день её гибели, Сергей начинает понимать, что ему многое не договаривают...

Страна: СССР
Студия: ТО Экран
Продолжительность: 04:40:30
Перевод: Не требуется (оригинальный)
Файл
Формат: avi
Качество: DVDRip (DVD9)
Видео: XviD, 640x480, 25fps, 977kbps
Аудио: MPEG Layer 3, 2ch, 48000Hz, 128kbps

General
Complete name : VPS.1988.O.DVDRip.2100.CurHaJI.avi
Format : AVI
Format/Info : Audio Video Interleave
Format profile : OpenDML
File size : 2.19 GiB
Duration : 4h 40mn
Overall bit rate : 1 118 Kbps
Movie name : VPS.1988.O.DVDRip.2100.CurHaJI
Writing application : Lavf53.13.0
Writing library : VirtualDub build 35491/release
Video
ID : 0
Format : MPEG-4 Visual
Format profile : Advanced Simple@L5
Format settings, BVOP : 2
Format settings, QPel : No
Format settings, GMC : No warppoints
Format settings, Matrix : Custom
Codec ID : XVID
Codec ID/Hint : XviD
Duration : 4h 40mn
Bit rate : 977 Kbps
Width : 640 pixels
Height : 480 pixels
Display aspect ratio : 4:3
Frame rate : 25.000 fps
Color space : YUV
Chroma subsampling : 4:2:0
Bit depth : 8 bits
Scan type : Progressive
Compression mode : Lossy
Bits/(Pixel*Frame) : 0.127
Stream size : 1.91 GiB (87%)
Writing library : XviD 64
Audio
ID : 1
Format : MPEG Audio
Format version : Version 1
Format profile : Layer 3
Codec ID : 55
Codec ID/Hint : MP3
Duration : 4h 40mn
Bit rate mode : Constant
Bit rate : 128 Kbps
Channel(s) : 2 channels
Sampling rate : 48.0 KHz
Compression mode : Lossy
Stream size : 257 MiB (11%)
Alignment : Split accross interleaves
Interleave, duration : 40 ms (1.00 video frame)
Interleave, preload duration : 500 ms
Writing library : L3.99r
Encoding settings : -m s -V 4 -q 2 -lowpass 17 -b 128



Релиз от:



   Похожие торренты   Торрент   Размер 
В этой теме нет новых непрочитанных сообщений. Воскресенье, половина седьмого [01-04 из 04] (1988) DVDRip от Киномагия

72 | 12

2.98 ГБ

В этой теме нет новых непрочитанных сообщений. Воскресенье, половина седьмого (1988) DVDRip-AVC от ExKinoRay

113 | 63

5.08 ГБ

В этой теме нет новых непрочитанных сообщений. Воскресенье, половина седьмого [01-04 из 04] (1988) DVD9

39 | 9

7.07 ГБ

В этой теме нет новых непрочитанных сообщений. Никогда в воскресенье / Только не в воскресенье / Pote tin Kyriaki / Never on sunday (1960) DVDRip

13 | 8

1.46 ГБ

В этой теме нет новых непрочитанных сообщений. Единственное воскресенье (Только воскресенье) / Ainus pühapäev (1990) TVRip

0 | 3

1.11 ГБ

В этой теме нет новых непрочитанных сообщений. Единственное воскресенье (Только воскресенье) / Ainus pühapäev (1990) TVRip

4 | 0

1.11 ГБ

В этой теме нет новых непрочитанных сообщений. Зуд седьмого года / The Seven Year Itch (1955) DVDRip

200 | 3

1.28 ГБ




Вы не можете начинать темы
Вы не можете отвечать на сообщения
Вы не можете редактировать свои сообщения
Вы не можете удалять свои сообщения
Вы не можете добавлять вложения

Перейти:  
Для Мосгорсуда, Роскомнадзора и рекламодателей: mosgorsud-torrent[собачка]yandex.ru
 Вход
ppkBB3cker v.2 © 2008-2014 @ PPK
[ Time : 0.055s | 17 Queries | GZIP : Off ]

Торрент трекер RUTOR.IN, Не можете зайти на rutor.org? Какой новый адрес рутор? Какое зеркало рутор? Не работает rutor.org и зеркала? Тогда наш торрент специально для вас. Rutor.in неофициальное зеркало rutor. В случае если у Вас заблокирован rutor или вдруг Вы не можете на него зайти, то Вы без труда сможете скачать бесплатно и без рекламы последние новинки кино, игр, сериалов и прочего у нас, на Rutor.in. Не нужно использовать прокси, чтобы зайти на рутор, достаточно воспользоваться нашим ресурсом. Все новые фильмы, игры, сериалы, книги и музыка за 2013 и 2014 годы через торрент бесплатно. Скачивайте фильмы в хорошем качестве, игры для пк, xbox, playstation без регистрации. У нас вы найдете новые Зарубежные сериалы и Русские сериалы 2013, 2014, 2015 годов. Оставайтесь с нами, качайте любимые фильмы, игры, сериалы, книги и музыку.