img image001 image001 image001 image001 image001 image001 image001 image001 image001 image001 image001 image001 image001 image001 image001

Planets Sun Sun Sun
Статистика раздачи
Автор: Nickolas3434 | Размер: 1.46 ГБ | Добавлен: 16 фев 2016, 16:13
Раздают: 465    Качают: 28
Скачать торрент
Скачать торрент
Описание торрента

СообщениеДобавлено: 16 фев 2016, 16:13 


Информация о фильме
Название: Голоса большой страны
Год выпуска: 2016
Страна: Россия
Жанр: мюзикл, комедия, мелодрама

Перевод: Оригинал [iTunes]
Продолжительность: 01:28:31

Режиссер: Таир Мамедов
В ролях: Алена Тойминцева, Андрей Гризли, Егор Сесарев, Тина Кузнецова, Антон Беляев, Мариам Мерабова, Ярослав Дронов, Илья Киреев, Виктория Жук, Анжелика Фролова, Валентина Бирюкова, Александра Белякова


Описание:
В каждом уголке нашей огромной родины есть талантливые люди, достойные признания и славы. Они слетаются в столицу и принимают участие в популярных телевизионных шоу. Но свет софитов гаснет, а жизнь продолжается. И не так, как им это виделось...
Каждому из наших героев - юных и взрослых, амбициозных и скромных, одиноких и влюбленных - придется пройти через многие испытания. Их ждут взлеты и падения, встречи и расставания, дружба и предательство. Но в итоге они станут одной большой командой, семьей, объединившей разных людей из самых отдаленных городков нашей большой страны, во имя музыки, таланта и, конечно же, любви!

Рейтинг:


Качество: WEB-DLRip-AVC
Формат: MKV
Видео: AVC, 1024x424 (2.40:1), 1680 kbps, 24 fps, 0,161 bpp
Аудио: русский / AC3 / 5.1 / 48 kHz / 384 kbps / 16 bit
Семпл


Релиз от: by White Smoke
General
Unique ID : 223824442065052156446191643074487788438 (0xA86304FFA5FD7F52B41E993BC83A2396)
Название : C:GamesG0L0Ca.CtPaHy.2016.WEB-DLRip-AVC.by.White Smoke.R.G.Resident.mkv
Формат : Matroska
Формат version : Version 2
Размер файла : 1.46 GiB
Длительность : 1h 41mn
Общий Битрейт : 2 065 Kbps
Encoded date : UTC 2016-02-15 05:52:31
Создано приложением : mkvmerge v7.8.0 ('River Man') 32bit built on Apr 3 2015 12:11:22
Writing library : libebml v1.3.1 + libmatroska v1.4.2
Video
ID : 1
Формат : AVC
Формат/Info : Advanced Video Кодек
Формат profile : High@L4.1
Формат настройки, CABAC : Yes
Формат настройки, ReFrames : 12 frames
Кодек ID : V_MPEG4/ISO/AVC
Длительность : 1h 41mn
Битрейт : 1 680 Kbps
Width : 1 024 пикселей
Высота : 424 пикселей
Соотношение кадра : 2.40:1
Частота кадров : 24.000 fps
Цветопередача : YUV
Chroma subsampling : 4:2:0
Разрядность : 8 bits
Тип сканирования : Progressive
Bits/(Pixel*Frame) : 0.161
Размер потока : 1.16 GiB (79%)
Writing library : x264 core 146 r2538 121396c
Encoding настройки : cabac=1 / ref=12 / deblock=1:-2:-2 / analyse=0x3:0x113 / me=umh / subme=9 / psy=1 / psy_rd=1.00:0.00 / mixed_ref=1 / me_range=32 / chroma_me=1 / trellis=2 / 8x8dct=1 / cqm=0 / deadzone=21,11 / fast_pskip=0 / chroma_qp_offset=-2 / threads=6 / lookahead_threads=1 / sliced_threads=0 / nr=0 / decimate=0 / interlaced=0 / bluray_compat=0 / constrained_intra=0 / bframes=10 / b_pyramid=2 / b_adapt=2 / b_bias=0 / direct=3 / weightb=1 / open_gop=0 / weightp=2 / keyint=250 / keyint_min=23 / scenecut=40 / intra_refresh=0 / rc_lookahead=60 / rc=2pass / mbtree=0 / bitrate=1680 / ratetol=1.0 / qcomp=0.60 / qpmin=0 / qpmax=69 / qpstep=4 / cplxblur=20.0 / qblur=0.5 / vbv_maxrate=14000 / vbv_bufsize=14000 / nal_hrd=none / filler=0 / ip_ratio=1.40 / pb_ratio=1.30 / aq=1:0.80
Default : Yes
Forced : No
Audio
ID : 2
Формат : AC-3
Формат/Info : Audio Coding 3
Расширение режима : CM (complete main)
Кодек ID : A_AC3
Длительность : 1h 41mn
Битрейт mode : Constant
Битрейт : 384 Kbps
Channel(s) : 6 каналов
Channel positions : Front: L C R, Side: L R, LFE
Частота : 48.0 KHz
Разрядность : 16 bits
Режим сжатия : Lossy
Размер потока : 278 MiB (19%)
Default : Yes
Forced : No




   Похожие торренты   Торрент   Размер 
В этой теме нет новых непрочитанных сообщений. Голоса большой страны (2016) WEB-DLRip | iTunes

4099 | 102

1.46 ГБ

В этой теме нет новых непрочитанных сообщений. Голоса большой страны (2016) WEB-DLRip от MegaPeer | iTunes

120 | 20

746.33 МБ

В этой теме нет новых непрочитанных сообщений. Голоса большой страны (2016) WEB-DLRip от Scarabey | iTunes

2441 | 82

1.45 ГБ

В этой теме нет новых непрочитанных сообщений. Голоса большой страны (2016) WEB-DL 720p | iTunes

1671 | 42

3.09 ГБ

В этой теме нет новых непрочитанных сообщений. Голоса большой страны (2016) HDTV 1080i от MediaClub

140 | 3

4.85 ГБ

В этой теме нет новых непрочитанных сообщений. Голоса / The Voices (2014) HDRip от -=HD-NET=- | КПК | iTunes

77 | 5

419.81 МБ

В этой теме нет новых непрочитанных сообщений. Голоса / The Voices (2014) HDRip | iTunes, P

1557 | 147

2.05 ГБ




Вы не можете начинать темы
Вы не можете отвечать на сообщения
Вы не можете редактировать свои сообщения
Вы не можете удалять свои сообщения
Вы не можете добавлять вложения

Перейти:  
Для Мосгорсуда, Роскомнадзора и рекламодателей: mosgorsud-torrent[собачка]yandex.ru
Настройки
ppkBB3cker v.2 © 2008-2014 @ PPK
[ Time : 0.014s | 16 Queries | GZIP : Off ]
CGP [Extreme] output time : 0.00214s | 0 Queries | GZIP : Off

Торрент трекер RUTOR.IN, Не можете зайти на rutor.org? Какой новый адрес рутор? Какое зеркало рутор? Не работает rutor.org и зеркала? Тогда наш торрент специально для вас. Rutor.in неофициальное зеркало rutor. В случае если у Вас заблокирован rutor или вдруг Вы не можете на него зайти, то Вы без труда сможете скачать бесплатно и без рекламы последние новинки кино, игр, сериалов и прочего у нас, на Rutor.in. Не нужно использовать прокси, чтобы зайти на рутор, достаточно воспользоваться нашим ресурсом. Все новые фильмы, игры, сериалы, книги и музыка за 2013 и 2014 годы через торрент бесплатно. Скачивайте фильмы в хорошем качестве, игры для пк, xbox, playstation без регистрации. У нас вы найдете новые Зарубежные сериалы и Русские сериалы 2013, 2014, 2015 годов. Оставайтесь с нами, качайте любимые фильмы, игры, сериалы, книги и музыку.