img image001 image001 image001 image001 image001 image001 image001 image001 image001 image001 image001 image001 image001 image001 image001

Planets Sun Sun Sun
Статистика раздачи
Автор: Nickolas3434 | Размер: 1.78 ГБ | Добавлен: 17 фев 2016
Раздают: 104    Качают: 8
Скачать торрент
Скачать торрент
Описание торрента

СообщениеДобавлено: 17 фев 2016 


Информация о фильме
Название: Такси-блюз
Год выхода: 1990
Жанр: Драма, мелодрама, музыкальный
Режиссер: Павел Лунгин
В ролях: Пётр Мамонов, Пётр Зайченко, Владимир Кашпур, Наталья Коляканова, Хэл Сингер, Елена Сафонова, Сергей Газаров, Евгений Герчаков, Дмитрий Пригов, Игорь Золотовицкий, Валерий Хлевинский, Елена Степанова, Владимир Стержаков, Константин Афонский, Лидия Ежевская, Николай Ежевский, Сергей Галкин, Ирина Гобратова, Вячеслав Горбунчиков, Александр Иншаков, Владимир Лопатин, Наталья Маркова
О фильме:
Таксист (в исполнении Петра Зайченко) становится свидетелем и участником пьяного загула музыканта и его богемной компании. Он возит их по Москве, продает им свою водку, а потом клиент скрывается, не заплатив. Бывший лидер группы “Звуки “МУ” Петр Мамонов играет у Павла Лунгина бомжа Селиверстова, необычайно талантливого музыканта саксофониста. Играет он на контрастах – от истерично-пьяного бреда и плача, его героя вдруг прорывает к рассуждениям о бессмысленности жизни и всеобщего несчастья. Таксист находит своего несостоятельного должника и здесь начинается драматическая история их взаимоотношений, где только музыка может выразить чувства, обуревающие и таксиста, и саксофониста…
Страна: СССР, Франция
Продолжительность: 01:45:32
Перевод: не требуется
Файл
Кодек: x264
Качество: DVDRip-AVC
Видео: MPEG-4 AVC, 2222 Кбит/с, 662x572@942x572
Звук: AC3, 2 ch, 192 Кбит/с
Субтитры: Английские

raw [info]: 662x572p 64:45 @ 25/1 fps (cfr)
x264 [info]: using SAR=64/45
x264 [info]: using cpu capabilities: MMX2 SSE2Fast SSSE3 SSE4.2 AVX
x264 [info]: profile High, level 4.1
x264 [info]: frame I:33 Avg QP:13.51 size: 75563
x264 [info]: frame P:554 Avg QP:17.24 size: 25360
x264 [info]: frame B:1918 Avg QP:19.34 size: 6536
============================================================================================================
Общее
Уникальный идентификатор : 233268917479283275664162383321928255513 (0xAF7DF596712F344F88943D14013B4819)
Полное имя : D:Такси-блюз_1990-DVDRip-AVC.mkv
Формат : Matroska
Версия формата : Version 2
Размер файла : 1,78 Гбайт
Продолжительность : 1 ч. 45 м.
Общий поток : 2417 Кбит/сек
Дата кодирования : UTC 2016-02-15 03:09:29
Программа кодирования : mkvmerge v5.8.0 ('No Sleep / Pillow') built on Sep 2 2012 15:37:04
Библиотека кодирования : libebml v1.2.3 + libmatroska v1.3.0
Видео
Идентификатор : 1
Формат : AVC
Формат/Информация : Advanced Video Codec
Профиль формата : High@L4.1
Параметр CABAC формата : Да
Параметр ReFrames формата : 15 кадров
Идентификатор кодека : V_MPEG4/ISO/AVC
Продолжительность : 1 ч. 45 м.
Битрейт : 2222 Кбит/сек
Ширина : 662 пикселя
Высота : 572 пикселя
Соотношение сторон : 1,647
Соотношение сторон в оригинале : 1,646
Режим частоты кадров : Постоянный
Частота кадров : 25,000 кадров/сек
Цветовое пространство : YUV
Субдискретизация насыщенности : 4:2:0
Битовая глубина : 8 бит
Тип развёртки : Прогрессивная
Бит/(Пиксели*Кадры) : 0.235
Размер потока : 1,60 Гбайт (90%)
Библиотека кодирования : x264 core 148 r2638 7599210
Настройки программы : cabac=1 / ref=15 / deblock=1:-2:-2 / analyse=0x3:0x133 / me=umh / subme=10 / psy=1 / psy_rd=1.05:0.12 / mixed_ref=1 / me_range=32 / chroma_me=1 / trellis=2 / 8x8dct=1 / cqm=0 / deadzone=21,11 / fast_pskip=0 / chroma_qp_offset=-3 / threads=12 / lookahead_threads=3 / sliced_threads=0 / nr=0 / decimate=0 / interlaced=0 / bluray_compat=0 / constrained_intra=0 / bframes=10 / b_pyramid=2 / b_adapt=2 / b_bias=0 / direct=3 / weightb=1 / open_gop=0 / weightp=2 / keyint=250 / keyint_min=25 / scenecut=40 / intra_refresh=0 / rc=2pass / mbtree=0 / bitrate=2222 / ratetol=1.0 / qcomp=0.63 / qpmin=0 / qpmax=39 / qpstep=4 / cplxblur=20.0 / qblur=0.5 / ip_ratio=1.40 / pb_ratio=1.30 / aq=1:1.00
Язык : English
Default : Да
Forced : Нет
Основные цвета : BT.601 PAL
Характеристики трансфера : BT.470 System B, BT.470 System G
Коэффициенты матрицы : BT.601
Аудио
Идентификатор : 2
Формат : AC-3
Формат/Информация : Audio Coding 3
Расширение режима : CM (complete main)
Параметр Endianness формата : Big
Идентификатор кодека : A_AC3
Продолжительность : 1 ч. 45 м.
Вид битрейта : Постоянный
Битрейт : 192 Кбит/сек
Каналы : 2 канала
Расположение каналов : Front: L R
Частота : 48,0 КГц
Битовая глубина : 16 бит
Метод сжатия : С потерями
Задержка видео : 240 мс.
Размер потока : 145 Мбайт (8%)
Язык : Russian
Default : Да
Forced : Нет
Текст
Идентификатор : 3
Формат : UTF-8
Идентификатор кодека : S_TEXT/UTF8
Идентификатор кодека/Информация : UTF-8 Plain Text
Язык : English
Default : Нет
Forced : Нет

Релиз от:
Автор релиза:



   Похожие торренты   Торрент   Размер 
В этой теме нет новых непрочитанных сообщений. Такси-блюз (1990) DVDRip

7 | 5

1.45 ГБ

В этой теме нет новых непрочитанных сообщений. Такси-блюз (1990) DVDRip-AVC от Temperest

65 | 3

1.54 ГБ

В этой теме нет новых непрочитанных сообщений. Такси-блюз (1990) DVDRip от Pasha74

6 | 3

1.53 ГБ

В этой теме нет новых непрочитанных сообщений. Такси-блюз / Taxi-Blues (1990) DVDRip

26 | 10

1.33 ГБ

В этой теме нет новых непрочитанных сообщений. Такси-Блюз / Taxi-Blues (1990) DVD5

9 | 2

4.35 ГБ

В этой теме нет новых непрочитанных сообщений. Блюз о лучшей жизни / Mo' Better Blues (1990) DVDRip от NovaLan

3 | 10

2.06 ГБ

В этой теме нет новых непрочитанных сообщений. Блюз о лучшей жизни / Mo' Better Blues (1990) DVDRip от Alekxandr48 | P2

4 | 2

1.37 ГБ




Вы не можете начинать темы
Вы не можете отвечать на сообщения
Вы не можете редактировать свои сообщения
Вы не можете удалять свои сообщения
Вы не можете добавлять вложения

Перейти:  
Для Мосгорсуда, Роскомнадзора и рекламодателей: mosgorsud-torrent[собачка]yandex.ru
 Вход
ppkBB3cker v.2 © 2008-2014 @ PPK
[ Time : 0.032s | 14 Queries | GZIP : On ]

Торрент трекер RUTOR.IN, Не можете зайти на rutor.org? Какой новый адрес рутор? Какое зеркало рутор? Не работает rutor.org и зеркала? Тогда наш торрент специально для вас. Rutor.in неофициальное зеркало rutor. В случае если у Вас заблокирован rutor или вдруг Вы не можете на него зайти, то Вы без труда сможете скачать бесплатно и без рекламы последние новинки кино, игр, сериалов и прочего у нас, на Rutor.in. Не нужно использовать прокси, чтобы зайти на рутор, достаточно воспользоваться нашим ресурсом. Все новые фильмы, игры, сериалы, книги и музыка за 2013 и 2014 годы через торрент бесплатно. Скачивайте фильмы в хорошем качестве, игры для пк, xbox, playstation без регистрации. У нас вы найдете новые Зарубежные сериалы и Русские сериалы 2013, 2014, 2015 годов. Оставайтесь с нами, качайте любимые фильмы, игры, сериалы, книги и музыку.