img image001 image001 image001 image001 image001 image001 image001 image001 image001 image001 image001 image001 image001 image001 image001

Planets Sun Sun Sun
Статистика раздачи
Автор: Nickolas3434 | Размер: 744.38 МБ | Добавлен: 18 фев 2016
Раздают: 2213    Качают: 125
Скачать торрент
Скачать торрент
Описание торрента

СообщениеДобавлено: 18 фев 2016 


Информация о фильме
Оригинальное название: Влюбить и обезвредить (Любовь в розыске)
Год выпуска: 2015
Жанр: Комедия
Выпущено: Россия, Маурис Филм
Режиссер: Анарио Мамедов
В ролях: Анастасия Панина, Роман Полянский, Максим Битюков, Анна Пескова, Вадим Андреев, Андрей Бутин, Юлия Жигалина, Вячеслав Хархота, Юлия Подозерова
О фильме: Отчаявшись устроить личное счастье сотрудник полиции Анна в шутку составляет фоторобот мужчины своей мечты. По ошибке изображение попадает в базу розыска преступников и теперь все уверены, что именно так выглядит загадочный вор, которого боятся во всех ювелирных города. Безобидный программист Саша, поразительно похожий на фантазию Анны, приходит в магазин за обручальными кольцами для своей свадьбы и тут же оказывается в наручниках. В полиции быстро выясняют правду, но решают до поры до времени скрыть ее от Саши. Анне поручают присматривать за парнем, чтобы «на живца» поймать не только настоящего вора, но и опасных бандитов, гоняющихся за ним. Вот только хладнокровно следовать профессиональному долгу, сутками находясь рядом с самым желанным мужчиной, оказывается совсем непросто.

Качество: WEB-DLRip
Продолжительность: 01:49:18
Формат: AVI
Видео кодек: XVID
Аудио кодек: MP3
Видео: 688x368 (1,85:1), 25,000 fps, XviD 73 ~ 823 kbps avg, 0.130 bit/pixel
Аудио: 48,0 kHz, MPEG Audio 3, 2 ch, ~128 kbps avg
Общее
Полное имя : D:ВидеоVlyBit & oBeZbpedi1. 2015_WEB-DLRip by Vovan366(ExKinoRay).avi
Формат : AVI
Формат/Информация : Audio Video Interleave
Размер файла : 744 Мбайт
Продолжительность : 1 ч. 49 м.
Режим общего битрейта : Переменный
Общий поток : 952 Кбит/сек
Программа кодирования : VirtualDubMod 1.5.10.3 | www.virtualdub-fr.org || (build 2550/release)
Библиотека кодирования : VirtualDubMod build 2550/release
Видео
Идентификатор : 0
Формат : MPEG-4 Visual
Профиль формата : Advanced Simple@L5
Параметр BVOP формата : 2
Параметр QPel формата : Нет
Параметр GMC формата : Без точки перехода
Параметр матрицы формата : Выборочная
Идентификатор кодека : XVID
Идентификатор кодека/Подсказка : XviD
Продолжительность : 1 ч. 49 м.
Битрейт : 823 Кбит/сек
Ширина : 688 пикселей
Высота : 368 пикселей
Соотношение сторон : 1,85:1
Частота кадров : 25,000 кадров/сек
Цветовое пространство : YUV
Субдискретизация насыщенности : 4:2:0
Битовая глубина : 8 бит
Тип развёртки : Прогрессивная
Метод сжатия : С потерями
Бит/(Пиксели*Кадры) : 0.130
Размер потока : 643 Мбайт (86%)
Библиотека кодирования : XviD 73
Аудио
Идентификатор : 1
Формат : MPEG Audio
Версия формата : Version 1
Профиль формата : Layer 3
Режим : Joint stereo
Расширение режима : MS Stereo
Идентификатор кодека : 55
Идентификатор кодека/Подсказка : MP3
Продолжительность : 1 ч. 49 м.
Вид битрейта : Переменный
Битрейт : 117 Кбит/сек
Номинальный битрейт : 128 Кбит/сек
Каналы : 2 канала
Частота : 48,0 КГц
Метод сжатия : С потерями
Размер потока : 91,2 Мбайт (12%)
Выравнивание : Соединение по промежуткам
Продолжительность промежутка : 24 мс. (0,60 видеокадр)
Время предзагрузки промежутка : 158 мс.
Библиотека кодирования : LAME3.99r
Настройки программы : -m j -V 4 -q 2 -lowpass 17 --abr 128



Релиз от:
Rip by: Vovan366



   Похожие торренты   Торрент   Размер 
В этой теме нет новых непрочитанных сообщений. Влюбить и обезвредить / Любовь в розыске (2015) WEB-DLRip-AVC от ExKinoRay | iTunes Russia

1772 | 69

2.17 ГБ

В этой теме нет новых непрочитанных сообщений. Любовь в розыске / Влюбить и обезвредить (2015) WEB-DLRip от MegaPeer

1044 | 150

1.45 ГБ

В этой теме нет новых непрочитанных сообщений. Влюбить и обезвредить (2015) WEB-DL 1080p

1997 | 193

3.93 ГБ

В этой теме нет новых непрочитанных сообщений. Бармен (2015) WEB-DLRip-AVC от ExKinoRay | iTunes Russia

1761 | 35

1.71 ГБ

В этой теме нет новых непрочитанных сообщений. Богатырша (2015) WEB-DLRip-AVC от ExKinoRay | iTunes Russia

1946 | 114

745.35 МБ

В этой теме нет новых непрочитанных сообщений. Бармен (2015) WEB-DLRip-AVC от ExKinoRay | iTunes Russia

1238 | 39

744.39 МБ

В этой теме нет новых непрочитанных сообщений. Училка (2015) WEB-DLRip-AVC от ExKinoRay | iTunes Russia

811 | 31

2.14 ГБ




Вы не можете начинать темы
Вы не можете отвечать на сообщения
Вы не можете редактировать свои сообщения
Вы не можете удалять свои сообщения
Вы не можете добавлять вложения

Перейти:  
Для Мосгорсуда, Роскомнадзора и рекламодателей: mosgorsud-torrent[собачка]yandex.ru
 Вход
ppkBB3cker v.2 © 2008-2014 @ PPK
[ Time : 0.019s | 14 Queries | GZIP : On ]

Торрент трекер RUTOR.IN, Не можете зайти на rutor.org? Какой новый адрес рутор? Какое зеркало рутор? Не работает rutor.org и зеркала? Тогда наш торрент специально для вас. Rutor.in неофициальное зеркало rutor. В случае если у Вас заблокирован rutor или вдруг Вы не можете на него зайти, то Вы без труда сможете скачать бесплатно и без рекламы последние новинки кино, игр, сериалов и прочего у нас, на Rutor.in. Не нужно использовать прокси, чтобы зайти на рутор, достаточно воспользоваться нашим ресурсом. Все новые фильмы, игры, сериалы, книги и музыка за 2013 и 2014 годы через торрент бесплатно. Скачивайте фильмы в хорошем качестве, игры для пк, xbox, playstation без регистрации. У нас вы найдете новые Зарубежные сериалы и Русские сериалы 2013, 2014, 2015 годов. Оставайтесь с нами, качайте любимые фильмы, игры, сериалы, книги и музыку.