img image001 image001 image001 image001 image001 image001 image001 image001 image001 image001 image001 image001 image001 image001 image001

Planets Sun Sun Sun
Статистика раздачи
Автор: Nickolas3434 | Размер: 2.55 ГБ | Добавлен: 18 фев 2016
Раздают: 378    Качают: 40
Скачать торрент
Скачать торрент
Описание торрента

СообщениеДобавлено: 18 фев 2016 


Информация о фильме
Название: Чапаев
Год выхода: 1934
Жанр: Драма, военный, история, экранизация
Режиссер: Георгий Васильев, Сергей Васильев
В ролях: Борис Бабочкин, Леонид Кмит, Варвара Мясникова, Борис Блинов, Илларион Певцов, Степан Шкурат, Вячеслав Волков, Николай Симонов, Борис Чирков
О фильме:
По повести Дмитрия Фурманова. Урал в 1919 г. Гражданская война. Отряды храброго крестьянина Чапаева воюют с белой армией Колчака. Василий Иванович Чапаев (Борис Бабочкин), командир 25-ой дивизии Красной армии, готовится к решающему сражению с отборными частями каппелевцев, возглавляемых опытным кадровым офицером, полковником Бороздиным (Илларион Певцов). Партия присылает ему на помощь Дмитрия Фурманова (Борис Блинов) — молодого, но образованного и умного комиссара, чьи мемуары впоследствии легли в основу романа и фильма, обессмертившего имя Чапаева в памяти советских граждан. Фильм восстановлен в 1963 году на к/с "Мосфильм".
Страна: СССР, Ленфильм
Продолжительность: 01:30:31
Перевод: не требуется
Файл
Кодек: x264
Качество: DVDRip-AVC
Видео: MPEG-4 AVC, ~3283 Кбит/с, 720x576@768x576
Звук: AC3, 6 ch, 448 Кбит/с, AC3, 1 ch, 224 Кбит/с

raw [info]: 720x576p 16:15 @ 25/1 fps (cfr)
x264 [info]: using SAR=16/15
x264 [info]: using cpu capabilities: MMX2 SSE2Fast SSSE3 SSE4.2 AVX
x264 [info]: profile High, level 4.1
x264 [info]: frame I:873 Avg QP:18.41 size: 67549
x264 [info]: frame P:29091 Avg QP:20.31 size: 38472
x264 [info]: frame B:105816 Avg QP:21.49 size: 11759
===========================================================================================================
Общее
Уникальный идентификатор : 235421920642907439701380969685153500054 (0xB11C9CD6D5F27262B1A525CA5DF84B96)
Полное имя : D:Чапаев_1934-DVDRip-AVC.mkv
Формат : Matroska
Версия формата : Version 2
Размер файла : 2,55 Гбайт
Продолжительность : 1 ч. 30 м.
Общий поток : 4036 Кбит/сек
Дата кодирования : UTC 2016-02-17 13:28:35
Программа кодирования : mkvmerge v5.8.0 ('No Sleep / Pillow') built on Sep 2 2012 15:37:04
Библиотека кодирования : libebml v1.2.3 + libmatroska v1.3.0
Видео
Идентификатор : 1
Формат : AVC
Формат/Информация : Advanced Video Codec
Профиль формата : High@L4.1
Параметр CABAC формата : Да
Параметр ReFrames формата : 15 кадров
Идентификатор кодека : V_MPEG4/ISO/AVC
Битрейт : 3283 Кбит/сек
Ширина : 720 пикселей
Высота : 576 пикселей
Соотношение сторон : 4:3
Режим частоты кадров : Переменный
Частота кадров в оригинале : 25,000 кадров/сек
Стандарт вещания : PAL
Цветовое пространство : YUV
Субдискретизация насыщенности : 4:2:0
Битовая глубина : 8 бит
Тип развёртки : Прогрессивная
Библиотека кодирования : x264 core 148 r2638 7599210
Настройки программы : cabac=1 / ref=15 / deblock=1:-2:-2 / analyse=0x3:0x133 / me=umh / subme=10 / psy=1 / psy_rd=1.03:0.10 / mixed_ref=1 / me_range=32 / chroma_me=1 / trellis=2 / 8x8dct=1 / cqm=0 / deadzone=21,11 / fast_pskip=1 / chroma_qp_offset=-3 / threads=12 / lookahead_threads=3 / sliced_threads=0 / nr=0 / decimate=1 / interlaced=0 / bluray_compat=0 / constrained_intra=0 / bframes=10 / b_pyramid=2 / b_adapt=2 / b_bias=0 / direct=1 / weightb=1 / open_gop=0 / weightp=2 / keyint=250 / keyint_min=25 / scenecut=40 / intra_refresh=0 / rc=crf / mbtree=0 / crf=18.3 / qcomp=0.63 / qpmin=0 / qpmax=39 / qpstep=4 / ip_ratio=1.40 / pb_ratio=1.30 / aq=1:1.00
Язык : English
Default : Да
Forced : Нет
Основные цвета : BT.601 PAL
Характеристики трансфера : BT.470 System B, BT.470 System G
Коэффициенты матрицы : BT.601
Аудио #1
Идентификатор : 2
Формат : AC-3
Формат/Информация : Audio Coding 3
Расширение режима : CM (complete main)
Параметр Endianness формата : Big
Идентификатор кодека : A_AC3
Продолжительность : 1 ч. 30 м.
Вид битрейта : Постоянный
Битрейт : 448 Кбит/сек
Каналы : 1 канал
Расположение каналов : Front: C
Частота : 48,0 КГц
Битовая глубина : 16 бит
Метод сжатия : С потерями
Задержка видео : 273 мс.
Размер потока : 290 Мбайт (11%)
Язык : Russian
Default : Нет
Forced : Нет
Аудио #2
Идентификатор : 3
Формат : AC-3
Формат/Информация : Audio Coding 3
Расширение режима : CM (complete main)
Параметр Endianness формата : Big
Идентификатор кодека : A_AC3
Продолжительность : 1 ч. 30 м.
Вид битрейта : Постоянный
Битрейт : 224 Кбит/сек
Каналы : 1 канал
Расположение каналов : Front: C
Частота : 48,0 КГц
Битовая глубина : 16 бит
Метод сжатия : С потерями
Задержка видео : 273 мс.
Размер потока : 145 Мбайт (6%)
Язык : Russian
Default : Да
Forced : Нет

Релиз от:
Автор релиза:



   Похожие торренты   Торрент   Размер 
В этой теме нет новых непрочитанных сообщений. Чапаев (1934) DVDRip-AVC

121 | 5

1.98 ГБ

В этой теме нет новых непрочитанных сообщений. Чапаев (1934) DVDRip

280 | 17

763.76 МБ

В этой теме нет новых непрочитанных сообщений. Чапаев (1934) DVDRip

539 | 26

1.37 ГБ

В этой теме нет новых непрочитанных сообщений. Только любовь / Fashions of 1934 (1934) DVDRip от egoleshik | P

10 | 4

1.1 ГБ

В этой теме нет новых непрочитанных сообщений. Это случилось однажды ночью / It Happened One Night (1934) DVDRip от ExKinoRay

22 | 2

1.47 ГБ

В этой теме нет новых непрочитанных сообщений. Клеопатра / Cleopatra (1934) BDRip-AVC от ExKinoRay | P

1 | 5

2.75 ГБ

В этой теме нет новых непрочитанных сообщений. Клеопатра / Cleopatra (1934) BDRip 720p от ExKinoRay | P

0 | 4

7.36 ГБ




Вы не можете начинать темы
Вы не можете отвечать на сообщения
Вы не можете редактировать свои сообщения
Вы не можете удалять свои сообщения
Вы не можете добавлять вложения

Перейти:  
Для Мосгорсуда, Роскомнадзора и рекламодателей: mosgorsud-torrent[собачка]yandex.ru
 Вход
ppkBB3cker v.2 © 2008-2014 @ PPK
[ Time : 0.056s | 14 Queries | GZIP : Off ]

Торрент трекер RUTOR.IN, Не можете зайти на rutor.org? Какой новый адрес рутор? Какое зеркало рутор? Не работает rutor.org и зеркала? Тогда наш торрент специально для вас. Rutor.in неофициальное зеркало rutor. В случае если у Вас заблокирован rutor или вдруг Вы не можете на него зайти, то Вы без труда сможете скачать бесплатно и без рекламы последние новинки кино, игр, сериалов и прочего у нас, на Rutor.in. Не нужно использовать прокси, чтобы зайти на рутор, достаточно воспользоваться нашим ресурсом. Все новые фильмы, игры, сериалы, книги и музыка за 2013 и 2014 годы через торрент бесплатно. Скачивайте фильмы в хорошем качестве, игры для пк, xbox, playstation без регистрации. У нас вы найдете новые Зарубежные сериалы и Русские сериалы 2013, 2014, 2015 годов. Оставайтесь с нами, качайте любимые фильмы, игры, сериалы, книги и музыку.