img image001 image001 image001 image001 image001 image001 image001 image001 image001 image001 image001 image001 image001 image001 image001

Planets Sun Sun Sun
Статистика раздачи
Автор: Nickolas3434 | Размер: 2.18 ГБ | Добавлен: 18 фев 2016
Раздают: 32    Качают: 11
Скачать торрент
Скачать торрент
Описание торрента

СообщениеДобавлено: 18 фев 2016 

Страна: СССР
Производство: Ленфильм
Жанр: драма
Год выпуска: 1953
Продолжительность: 02:48:05 (01:35:44 + 01:12:22)
Перевод: Не требуется
Cубтитры: нет
Оригинальная аудиодорожка: русский
Режиссер: Геннадий Казанский
В ролях:
Геннадий Мичурин, Анна Белоусова, Тамара Алёшина, Александр Чекаевский, Александр Борисов, Константин Калинис, Георгий Осипенко, Константин Скоробогатов, Георгий Колосов, Константин Адашевский, Николай Левицкий (II), Ариф Урусов, К. Булатов...
Полный список актёров
Описание:
По одноименной пьесе А.Н.Островского.
Спектакль Ленинградского академического театра драмы им. А.С.Пушкина. Режиссеры спектакля Владимир Кожич и Антонин Даусон.
Именитый купец Курослепов проводит жизнь в беспробудном пьянстве. Домом заправляет жена Матрёна, властная и безнравственная женщина, которая тратит мужнины деньги, крутит роман с приказчиком и всячески притесняет дочь Курослепова от первого брака Парашу. Сюжет закручивается вокруг пропажи крупной суммы денег. Жениха Параши Васю обвиняют в краже и грозят отправить в солдаты. Бедная девушка в отчаянии идет молиться за парня. А сам трусоватый и расчётливый Вася соглашается стать шутом купца Хлынова, который откупает его от солдатчины. Осознав ничтогжество своего избранника, Параша обретает своё счастье с влюбённым в неё приказчиком Гаврилой.





Источник: DVD9 R5
Качество видео: DVDRip-AVC
Формат видео: MKV
Видео: 696->762x572 (4:3), 25 fps, H264 ~ 1661 kbps avg, 0.167 bit/pixel
Аудио: 48 kHz, Dolby Digital AC3 2.0, 192 kbps
Раздача от:
Общее
Полное имя : Goryachee.serdce.1953.DVDRip-AVC_[New-team]_by_AVP_Studio.mkv
Формат : Matroska
Версия формата : Version 2
Размер файла : 1,24 Гбайт
Продолжительность : 1 ч. 35 м.
Общий поток : 1855 Кбит/сек
Дата кодирования : UTC 2016-02-17 12:02:22
Программа кодирования : mkvmerge v6.1.0 ('Old Devil') built on Mar 4 2013 09:10:42
Библиотека кодирования : libebml v1.3.0 + libmatroska v1.4.0
Видео
Идентификатор : 1
Формат : AVC
Формат/Информация : Advanced Video Codec
Профиль формата : High@L4.1
Параметр CABAC формата : Да
Параметр ReFrames формата : 10 кадров
Идентификатор кодека : V_MPEG4/ISO/AVC
Продолжительность : 1 ч. 35 м.
Битрейт : 1661 Кбит/сек
Ширина : 696 пикселей
Высота : 572 пикселя
Соотношение сторон : 4:3
Режим частоты кадров : Постоянный
Частота кадров : 25,000 кадров/сек
Цветовое пространство : YUV
Субдискретизация насыщенности : 4:2:0
Битовая глубина : 8 бит
Тип развёртки : Прогрессивная
Бит/(Пиксели*Кадры) : 0.167
Размер потока : 1,09 Гбайт (88%)
Библиотека кодирования : x264 core 130 r2273 b3065e6
Настройки программы : cabac=1 / ref=10 / deblock=1:-2:-1 / analyse=0x3:0x113 / me=umh / subme=10 / psy=1 / psy_rd=1.00:0.00 / mixed_ref=1 / me_range=32 / chroma_me=1 / trellis=2 / 8x8dct=1 / cqm=0 / deadzone=21,11 / fast_pskip=1 / chroma_qp_offset=-2 / threads=6 / lookahead_threads=1 / sliced_threads=0 / nr=0 / decimate=0 / interlaced=0 / bluray_compat=0 / constrained_intra=0 / bframes=8 / b_pyramid=2 / b_adapt=2 / b_bias=0 / direct=3 / weightb=1 / open_gop=0 / weightp=2 / keyint=250 / keyint_min=25 / scenecut=40 / intra_refresh=0 / rc=2pass / mbtree=0 / bitrate=1661 / ratetol=1.0 / qcomp=0.60 / qpmin=0 / qpmax=69 / qpstep=4 / cplxblur=20.0 / qblur=0.5 / ip_ratio=1.40 / pb_ratio=1.30 / aq=1:1.00
Default : Да
Forced : Нет
Аудио
Идентификатор : 2
Формат : AC-3
Формат/Информация : Audio Coding 3
Расширение режима : CM (complete main)
Параметр Endianness формата : Big
Идентификатор кодека : A_AC3
Продолжительность : 1 ч. 35 м.
Вид битрейта : Постоянный
Битрейт : 192 Кбит/сек
Каналы : 2 канала
Расположение каналов : Front: L R
Частота : 48,0 КГц
Частота кадров : 31,250 кадров/сек (1536 spf)
Метод сжатия : С потерями
Размер потока : 131 Мбайт (10%)
Default : Да
Forced : Нет





   Похожие торренты   Торрент   Размер 
В этой теме нет новых непрочитанных сообщений. Горячее сердце (1953) DVDRip от New-Team

9 | 13

2.18 ГБ

В этой теме нет новых непрочитанных сообщений. Горячее сердце (1953) DVDRip от Кинорадиомагия

62 | 28

1.37 ГБ

В этой теме нет новых непрочитанных сообщений. Горячее сердце / Kranti (1981) IPTVRip от Files-x

7 | 7

2.63 ГБ

В этой теме нет новых непрочитанных сообщений. Горячее сердце / Fireheart: The Legend of Tadas Blinda (2011) HDRip | L1

15 | 6

2.04 ГБ

В этой теме нет новых непрочитанных сообщений. Тадас Блинда. Начало / Горячее сердце / Tadas Blinda. Pradzia (2011) HDRip | L1

4 | 2

1.45 ГБ

В этой теме нет новых непрочитанных сообщений. Чук и Гек (1953) DVDRip от New-Team

669 | 23

745.12 МБ

В этой теме нет новых непрочитанных сообщений. Чук и Гек (1953) DVDRip-AVC от New-Team

164 | 27

744.41 МБ




Вы не можете начинать темы
Вы не можете отвечать на сообщения
Вы не можете редактировать свои сообщения
Вы не можете удалять свои сообщения
Вы не можете добавлять вложения

Перейти:  
Для Мосгорсуда, Роскомнадзора и рекламодателей: mosgorsud-torrent[собачка]yandex.ru
 Вход
ppkBB3cker v.2 © 2008-2014 @ PPK
[ Time : 0.043s | 15 Queries | GZIP : Off ]

Торрент трекер RUTOR.IN, Не можете зайти на rutor.org? Какой новый адрес рутор? Какое зеркало рутор? Не работает rutor.org и зеркала? Тогда наш торрент специально для вас. Rutor.in неофициальное зеркало rutor. В случае если у Вас заблокирован rutor или вдруг Вы не можете на него зайти, то Вы без труда сможете скачать бесплатно и без рекламы последние новинки кино, игр, сериалов и прочего у нас, на Rutor.in. Не нужно использовать прокси, чтобы зайти на рутор, достаточно воспользоваться нашим ресурсом. Все новые фильмы, игры, сериалы, книги и музыка за 2013 и 2014 годы через торрент бесплатно. Скачивайте фильмы в хорошем качестве, игры для пк, xbox, playstation без регистрации. У нас вы найдете новые Зарубежные сериалы и Русские сериалы 2013, 2014, 2015 годов. Оставайтесь с нами, качайте любимые фильмы, игры, сериалы, книги и музыку.