img image001 image001 image001 image001 image001 image001 image001 image001 image001 image001 image001 image001 image001 image001 image001

Planets Sun Sun Sun
Статистика раздачи
Автор: Nickolas3434 | Размер: 1.7 ГБ | Добавлен: 22 фев 2016
Раздают: 515    Качают: 14
Скачать торрент
Скачать торрент
Описание торрента

СообщениеДобавлено: 22 фев 2016 


Информация о фильме
Название: Аты-баты, шли солдаты
Год выхода: 1976
Жанр: Драма, военный
Режиссер: Леонид Быков
В ролях: Леонид Быков, Владимир Конкин, Елена Шанина, Леонид Бакштаев, Евгения Уралова, Сергей Иванов, Николай Гринько, Иван Гаврилюк, Николай Сектименко, Борис Кудрявцев, Георгий Авалишвили, Атарбек Ганиев, Наталья Наум, Михаил Езепов, Борис Химичев, Владимир Герасимов, Нина Кирьякова, Юрий Шерстнёв, Аида Юнусова, Вано Янтбелидзе, Павел Любешкин, Леонид Марченко, Богдан Бенюк, Маргарита Кошелева, Виктор Мирошниченко, Вилорий Пащенко
О фильме:
Они погибли в 1944 году, их было всего восемнадцать человек - комсомольский взвод, остановивший колонну немецких танков. Трагическое и комедийное, героическое и лирическое сплелись на экране в необычную ткань повествования об отцах, навсегда оставшихся молодыми, и о детях, пришедших туда, где ровно тридцать лет назад приняли свой последний смертный бой самые родные для них люди. Экранизация по произведению Бориса Васильева.
Страна: СССР, Киностудия им. А. Довженко
Продолжительность: 01:22:01
Перевод: не требуется
Файл
Кодек: x264
Качество: DVDRip-AVC
Видео: MPEG-4 AVC, 2300 Кбит/с, 720х568@1046х568
Звук: AC3, 6 ch, 448 Кбит/с, AC3, 1 ch, 224 Кбит/с
Субтитры: Русские, английские, французские, немецкие

raw [info]: 720x568p 93:64 @ 25/1 fps (cfr)
x264 [info]: using SAR=93/64
x264 [info]: using cpu capabilities: MMX2 SSE2Fast SSSE3 SSE4.2 AVX
x264 [info]: profile High, level 4.1
x264 [info]: frame I:615 Avg QP:17.38 size: 59307
x264 [info]: frame P:28353 Avg QP:20.49 size: 22696
x264 [info]: frame B:94076 Avg QP:22.16 size: 7812
============================================================================================================
Общее
Уникальный идентификатор : 209974319052164765931455937695787556015 (0x9DF795366916853C9D27902B35EC9CAF)
Полное имя : D:Аты-баты,шли солдаты_1976-DVDRip-AVC.mkv
Формат : Matroska
Версия формата : Version 2
Размер файла : 1,70 Гбайт
Продолжительность : 1 ч. 22 м.
Общий поток : 2974 Кбит/сек
Название фильма :
Дата кодирования : UTC 2015-05-11 20:27:01
Программа кодирования : mkvmerge v5.8.0 ('No Sleep / Pillow') built on Sep 2 2012 15:37:04
Библиотека кодирования : libebml v1.2.3 + libmatroska v1.3.0
Видео
Идентификатор : 1
Формат : AVC
Формат/Информация : Advanced Video Codec
Профиль формата : High@L4.1
Параметр CABAC формата : Да
Параметр ReFrames формата : 15 кадров
Идентификатор кодека : V_MPEG4/ISO/AVC
Продолжительность : 1 ч. 22 м.
Битрейт : 2300 Кбит/сек
Ширина : 720 пикселей
Высота : 568 пикселей
Соотношение сторон : 1,85:1
Режим частоты кадров : Постоянный
Частота кадров : 25,000 кадров/сек
Цветовое пространство : YUV
Субдискретизация насыщенности : 4:2:0
Битовая глубина : 8 бит
Тип развёртки : Прогрессивная
Бит/(Пиксели*Кадры) : 0.225
Размер потока : 1,29 Гбайт (75%)
Библиотека кодирования : x264 core 146 r2538 121396c
Настройки программы : cabac=1 / ref=15 / deblock=1:-2:-2 / analyse=0x3:0x133 / me=umh / subme=10 / psy=1 / psy_rd=1.05:0.15 / mixed_ref=1 / me_range=32 / chroma_me=1 / trellis=2 / 8x8dct=1 / cqm=0 / deadzone=21,11 / fast_pskip=0 / chroma_qp_offset=-3 / threads=12 / lookahead_threads=3 / sliced_threads=0 / nr=0 / decimate=0 / interlaced=0 / bluray_compat=0 / constrained_intra=0 / bframes=10 / b_pyramid=2 / b_adapt=2 / b_bias=0 / direct=3 / weightb=1 / open_gop=0 / weightp=2 / keyint=250 / keyint_min=25 / scenecut=40 / intra_refresh=0 / rc=2pass / mbtree=0 / bitrate=2300 / ratetol=1.0 / qcomp=0.65 / qpmin=0 / qpmax=39 / qpstep=4 / cplxblur=20.0 / qblur=0.5 / ip_ratio=1.40 / pb_ratio=1.30 / aq=1:1.00
Язык : English
Default : Да
Forced : Нет
Цветовой диапазон : Limited
Основные цвета : BT.601 PAL
Характеристики трансфера : BT.470 System B, BT.470 System G
Коэффициенты матрицы : BT.601
Аудио #1
Идентификатор : 2
Формат : AC-3
Формат/Информация : Audio Coding 3
Расширение режима : CM (complete main)
Параметр Endianness формата : Big
Идентификатор кодека : A_AC3
Продолжительность : 1 ч. 22 м.
Вид битрейта : Постоянный
Битрейт : 448 Кбит/сек
Каналы : 6 каналов
Расположение каналов : Front: L C R, Side: L R, LFE
Частота : 48,0 КГц
Битовая глубина : 16 бит
Метод сжатия : С потерями
Размер потока : 263 Мбайт (15%)
Язык : Russian
Default : Да
Forced : Нет
Аудио #2
Идентификатор : 3
Формат : AC-3
Формат/Информация : Audio Coding 3
Расширение режима : CM (complete main)
Параметр Endianness формата : Big
Идентификатор кодека : A_AC3
Продолжительность : 1 ч. 22 м.
Вид битрейта : Постоянный
Битрейт : 224 Кбит/сек
Каналы : 1 канал
Расположение каналов : Front: C
Частота : 48,0 КГц
Битовая глубина : 16 бит
Метод сжатия : С потерями
Размер потока : 131 Мбайт (8%)
Язык : Russian
Default : Нет
Forced : Нет
Текст #1
Идентификатор : 4
Формат : UTF-8
Идентификатор кодека : S_TEXT/UTF8
Идентификатор кодека/Информация : UTF-8 Plain Text
Заголовок : Twister
Язык : Russian
Default : Нет
Forced : Нет
Текст #2
Идентификатор : 5
Формат : UTF-8
Идентификатор кодека : S_TEXT/UTF8
Идентификатор кодека/Информация : UTF-8 Plain Text
Заголовок : RUSCICO
Язык : English
Default : Нет
Forced : Нет
Текст #3
Идентификатор : 6
Формат : UTF-8
Идентификатор кодека : S_TEXT/UTF8
Идентификатор кодека/Информация : UTF-8 Plain Text
Заголовок : RUSCICO
Язык : French
Default : Нет
Forced : Нет
Текст #4
Идентификатор : 7
Формат : UTF-8
Идентификатор кодека : S_TEXT/UTF8
Идентификатор кодека/Информация : UTF-8 Plain Text
Заголовок : RUSCICO
Язык : German
Default : Нет
Forced : Нет
Меню
00:00:00.000 : en:00:00
00:07:56.160 : en:00:07:56
00:10:57.520 : en:00:10:57
00:14:15.640 : en:00:14:15
00:19:39.480 : en:00:19:39
00:23:42.720 : en:00:23:42
00:25:35.400 : en:00:25:35
00:30:53.040 : en:00:30:53
00:37:46.320 : en:00:37:46
00:39:58.200 : en:00:39:58
00:42:24.120 : en:00:42:24
00:46:09.240 : en:00:46:09
00:53:18.120 : en:00:53:18
00:58:21.120 : en:00:58:21
01:01:11.640 : en:01:01:11
01:05:32.160 : en:01:05:32
01:12:06.960 : en:01:12:06
01:18:56.520 : en:01:18:56

Релиз от:
Автор релиза:



   Похожие торренты   Торрент   Размер 
В этой теме нет новых непрочитанных сообщений. Аты-баты, шли солдаты (1976) DVDRip-AVC от UAGet

29 | 4

1.13 ГБ

В этой теме нет новых непрочитанных сообщений. Аты-баты, шли солдаты... (1976) DVDRip от Scarabey

184 | 42

1.45 ГБ

В этой теме нет новых непрочитанных сообщений. Аты-баты, шли солдаты (1976) DVDRip | Цветной

304 | 18

1.36 ГБ

В этой теме нет новых непрочитанных сообщений. Аты-баты, шли солдаты... (1976) DVDRip от MediaClub | КПК

48 | 8

370.56 МБ

В этой теме нет новых непрочитанных сообщений. Аты-баты, шли солдаты (1976) DVD9 | Реставрация / Цветной

99 | 13

7.35 ГБ

В этой теме нет новых непрочитанных сообщений. Сергей Трофимов - Аты-Баты (2012) MP3 от BestSound ExKinoRay

88 | 3

163.49 МБ

В этой теме нет новых непрочитанных сообщений. Солдаты [S02] (2004) DVDRip от ExKinoRay

265 | 67

10.93 ГБ




Вы не можете начинать темы
Вы не можете отвечать на сообщения
Вы не можете редактировать свои сообщения
Вы не можете удалять свои сообщения
Вы не можете добавлять вложения

Перейти:  
Для Мосгорсуда, Роскомнадзора и рекламодателей: mosgorsud-torrent[собачка]yandex.ru
 Вход
ppkBB3cker v.2 © 2008-2014 @ PPK
[ Time : 0.035s | 14 Queries | GZIP : On ]

Торрент трекер RUTOR.IN, Не можете зайти на rutor.org? Какой новый адрес рутор? Какое зеркало рутор? Не работает rutor.org и зеркала? Тогда наш торрент специально для вас. Rutor.in неофициальное зеркало rutor. В случае если у Вас заблокирован rutor или вдруг Вы не можете на него зайти, то Вы без труда сможете скачать бесплатно и без рекламы последние новинки кино, игр, сериалов и прочего у нас, на Rutor.in. Не нужно использовать прокси, чтобы зайти на рутор, достаточно воспользоваться нашим ресурсом. Все новые фильмы, игры, сериалы, книги и музыка за 2013 и 2014 годы через торрент бесплатно. Скачивайте фильмы в хорошем качестве, игры для пк, xbox, playstation без регистрации. У нас вы найдете новые Зарубежные сериалы и Русские сериалы 2013, 2014, 2015 годов. Оставайтесь с нами, качайте любимые фильмы, игры, сериалы, книги и музыку.