img image001 image001 image001 image001 image001 image001 image001 image001 image001 image001 image001 image001 image001 image001 image001

Planets Sun Sun Sun
Статистика раздачи
Автор: Nickolas3434 | Размер: 1.01 ГБ | Добавлен: 22 фев 2016
Раздают: 25    Качают: 4
Скачать торрент
Скачать торрент
Описание торрента

СообщениеДобавлено: 22 фев 2016 


Информация о фильме
Название: Лесные качели
Год выхода: 1975
Жанр: детский фильм
Режиссер: Михаил Пташук
В ролях: Олег Ефремов, Нинель Мышкова, Марина Матвеенко, Борис Лазарев, Анна Каменкова, Станислав Франио, Саша Трацевский, Костя Максимчик, Леня Морозов, Володя Смирнов, Ира Горбачева
О фильме:
Пятнадцатилетние Настя и Зуев свое последнее лето детства проводят в пионерском лагере. Это лето подарило героям первую любовь и нежную дружбу. Известно, что детям больше всего мешают взрослые. Взрослые и помешали, а их поддержало большинство ребят. Настя не поняла, почему ей нельзя дружить с мальчиком, но Зуев устыдился. Не готовый отстаивать свои чувства по-взрослому и не подумав о Насте, пацан выбрал самый простой способ решения конфликта - убежал из лагеря.
Доп. информация:
Сценарист: Инга Петкевич
Оператор: Юрий Марухин
Композитор: Станислав Пожлаков
Художники: Евгений Игнатьев, Валерий Назаров
Производство: Беларусьфильм
Премьера: 1976

Благодарность: исходник для данной раздачи, записан с цифрового наземного канала, т.е. DVB-Т, любезно предоставлен PavelDAS.
За что ему большое спасибо!
Запись потока *.ts с наземного цифрового телеканала "Беларусь 3", ремукс в *.mkv программой VideoReDo.
Синхронизация звука без перекодировки mkvmerge v8.5.1
Страна: Белорусская ССР
Студия: Беларусьфильм
Продолжительность: 01:00:16
Файл
Кодек: AVC (H264)
Качество: DVB
Видео: AVC (H264), 720x576 (4:3), 25 fps, 2 089 Kbps
Звук: MP2, 256 kbps, 2 channels, 48 kHz
Семпл
General
Unique ID : 248584680416634736778146527674646748586 (0xBB03AB0047DA8B5BB4B10D0348FD5DAA)
Complete name : D:Новая земля 2Художественные фильмыЛесные качели (1975)Лесные качели_1975.mkv
Format : Matroska
Format version : Version 4 / Version 2
File size : 1.01 GiB
Duration : 1h 0mn
Overall bit rate : 2 393 Kbps
Encoded date : UTC 2016-02-20 18:09:56
Writing application : mkvmerge v8.5.1 ('Where you lead I will follow') 32bit
Writing library : libebml v1.3.3 + libmatroska v1.4.4
Video
ID : 1
Format : AVC
Format/Info : Advanced Video Codec
Format profile : Main@L3.0
Format settings, CABAC : Yes
Format settings, ReFrames : 4 frames
Format settings, GOP : M=4, N=24
Codec ID : V_MPEG4/ISO/AVC
Duration : 1h 0mn
Bit rate : 2 089 Kbps
Width : 720 pixels
Height : 576 pixels
Display aspect ratio : 4:3
Original display aspect ratio : 4:3
Frame rate mode : Constant
Frame rate : 25.000 fps
Standard : PAL
Color space : YUV
Chroma subsampling : 4:2:0
Bit depth : 8 bits
Scan type : MBAFF
Scan order : Top Field First
Bits/(Pixel*Frame) : 0.201
Stream size : 900 MiB (87%)
Default : Yes
Forced : No
Color primaries : BT.601 PAL
Transfer characteristics : BT.470 System B, BT.470 System G
Matrix coefficients : BT.601
Color range : Limited
DURATION : 01:00:15.840000000
NUMBER_OF_FRAMES : 90396
NUMBER_OF_BYTES : 964808196
_STATISTICS_WRITING_APP : mkvmerge v8.5.1 ('Where you lead I will follow') 32bit
_STATISTICS_WRITING_DATE_UTC : 2016-02-20 18:09:56
_STATISTICS_TAGS : BPS DURATION NUMBER_OF_FRAMES NUMBER_OF_BYTES
Audio
ID : 2
Format : MPEG Audio
Format version : Version 1
Format profile : Layer 2
Codec ID : A_MPEG/L2
Codec ID/Hint : MP2
Duration : 1h 0mn
Bit rate mode : Constant
Bit rate : 256 Kbps
Channel(s) : 2 channels
Sampling rate : 48.0 KHz
Compression mode : Lossy
Delay relative to video : 150ms
Stream size : 110 MiB (11%)
Language : Russian
Default : Yes
Forced : No
DURATION : 01:00:15.816000000
NUMBER_OF_FRAMES : 150659
NUMBER_OF_BYTES : 115706112
_STATISTICS_WRITING_APP : mkvmerge v8.5.1 ('Where you lead I will follow') 32bit
_STATISTICS_WRITING_DATE_UTC : 2016-02-20 18:09:56
_STATISTICS_TAGS : BPS DURATION NUMBER_OF_FRAMES NUMBER_OF_BYTES




   Похожие торренты   Торрент   Размер 
В этой теме нет новых непрочитанных сообщений. Сборник мультфильмов - Лесные сказки (1975-1987) DVDRip от ImperiaFilm

111 | 14

4.43 ГБ

В этой теме нет новых непрочитанных сообщений. Винт (1975) SATRip от AND03AND

123 | 9

442.92 МБ

В этой теме нет новых непрочитанных сообщений. Монолог художника - Евсей Евсеевич Моисеенко (1975) DVB от AND03AND

2 | 3

366.59 МБ

В этой теме нет новых непрочитанных сообщений. Качели (2008) BDRip-AVC

109 | 12

2.18 ГБ

В этой теме нет новых непрочитанных сообщений. Качели (2008) BDRip-AVC

55 | 5

744.36 МБ

В этой теме нет новых непрочитанных сообщений. Centr - Качели (2007) MP3

182 | 20

151.58 МБ

В этой теме нет новых непрочитанных сообщений. Качели (2008) DVD5

9 | 2

4.37 ГБ




Вы не можете начинать темы
Вы не можете отвечать на сообщения
Вы не можете редактировать свои сообщения
Вы не можете удалять свои сообщения
Вы не можете добавлять вложения

Перейти:  
Для Мосгорсуда, Роскомнадзора и рекламодателей: mosgorsud-torrent[собачка]yandex.ru
 Вход
ppkBB3cker v.2 © 2008-2014 @ PPK
[ Time : 0.021s | 14 Queries | GZIP : On ]

Торрент трекер RUTOR.IN, Не можете зайти на rutor.org? Какой новый адрес рутор? Какое зеркало рутор? Не работает rutor.org и зеркала? Тогда наш торрент специально для вас. Rutor.in неофициальное зеркало rutor. В случае если у Вас заблокирован rutor или вдруг Вы не можете на него зайти, то Вы без труда сможете скачать бесплатно и без рекламы последние новинки кино, игр, сериалов и прочего у нас, на Rutor.in. Не нужно использовать прокси, чтобы зайти на рутор, достаточно воспользоваться нашим ресурсом. Все новые фильмы, игры, сериалы, книги и музыка за 2013 и 2014 годы через торрент бесплатно. Скачивайте фильмы в хорошем качестве, игры для пк, xbox, playstation без регистрации. У нас вы найдете новые Зарубежные сериалы и Русские сериалы 2013, 2014, 2015 годов. Оставайтесь с нами, качайте любимые фильмы, игры, сериалы, книги и музыку.