img image001 image001 image001 image001 image001 image001 image001 image001 image001 image001 image001 image001 image001 image001 image001

Planets Sun Sun Sun
Статистика раздачи
Автор: Nickolas3434 | Размер: 1.36 ГБ | Добавлен: 22 фев 2016
Раздают: 25    Качают: 14
Скачать торрент
Скачать торрент
Описание торрента

СообщениеДобавлено: 22 фев 2016 


Информация о фильме
Название: Семейные обстоятельства
Год выхода: 1977
Жанр: драма, экранизация
Режиссер: Леонид Мартынюк
В ролях: Игнат Данильцев, Зинаида Славина, Эдуард Марцевич, Валентина Титова, Владимир Басов, Любовь Малиновская, Александра Климова, Эрнст Романов, Казимирас Виткус, Анатолий Ведёнкин, Алексей Миронов, Валерия Лиходей
О фильме:
Экранизация повести А.Лиханова "Обман".
Жили сын и мать, были хорошими друзьями. О своем отце мальчик знал только из рассказов матери. Знал и любил ею созданный образ. Мечтал стать летчиком-испытателем, как погибший отец. Со смертью матери обрывается короткое счастье Сережи. Обманом обернулась прошлая счастливая жизнь. Оказывается, отец жив, но равнодушен к своему сыну, а отцовские чувства отчима - притворные. К Сергею приходит желание отдать "долги" этим людям...
Доп. информация:
Сценарист: Альберт Лиханов
Оператор: Феликс Кучар
Композитор: Шандор Каллош
Художник: Владимир Чернышёв
Производство: Беларусьфильм
Премьера: декабрь 1977

Благодарность: исходник для данной раздачи, записан с цифрового наземного канала, т.е. DVB-Т, любезно предоставлен PavelDAS.
За что ему большое спасибо!
Запись потока *.ts с наземного цифрового телеканала "Беларусь 3", ремукс в *.mkv программой VideoReDo.
Синхронизация звука без перекодировки mkvmerge v8.5.1
Страна: Белорусская ССР
Студия: Беларусьфильм
Продолжительность: 01:21:14
Файл
Кодек: AVC (H264)
Качество: DVB
Видео: AVC (H264), 720x576 (4:3), 25 fps, 2 093 Kbps
Звук: MP2, 256 kbps, 2 channels, 48 kHz
Семпл
Код:
General
Unique ID                      : 244823081344699038062746328679245714982 (0xB82F35D918E3DF68B53BF70EF5189626)
Complete name                  : D:Новая  земля 2Художественные фильмыСемейные обстоятельства (1977)Семейные обстоятельства (1977).mkv
Format                         : Matroska
Format version                 : Version 4 / Version 2
File size                      : 1.36 GiB
Duration                       : 1h 21mn
Overall bit rate               : 2 396 Kbps
Encoded date                   : UTC 2016-02-21 18:50:29
Writing application            : mkvmerge v8.5.1 ('Where you lead I will follow') 32bit
Writing library                : libebml v1.3.3 + libmatroska v1.4.4
Video
ID                             : 1
Format                         : AVC
Format/Info                    : Advanced Video Codec
Format profile                 : Main@L3.0
Format settings, CABAC         : Yes
Format settings, ReFrames      : 4 frames
Format settings, GOP           : M=4, N=24
Codec ID                       : V_MPEG4/ISO/AVC
Duration                       : 1h 21mn
Bit rate                       : 2 093 Kbps
Width                          : 720 pixels
Height                         : 576 pixels
Display aspect ratio           : 4:3
Original display aspect ratio  : 4:3
Frame rate mode                : Constant
Frame rate                     : 25.000 fps
Standard                       : PAL
Color space                    : YUV
Chroma subsampling             : 4:2:0
Bit depth                      : 8 bits
Scan type                      : MBAFF
Scan order                     : Top Field First
Bits/(Pixel*Frame)             : 0.202
Stream size                    : 1.19 GiB (87%)
Default                        : Yes
Forced                         : No
Color primaries                : BT.601 PAL
Transfer characteristics       : BT.470 System B, BT.470 System G
Matrix coefficients            : BT.601
Color range                    : Limited
DURATION                       : 01:21:14.440000000
NUMBER_OF_FRAMES               : 121861
NUMBER_OF_BYTES                : 1302816513
_STATISTICS_WRITING_APP        : mkvmerge v8.5.1 ('Where you lead I will follow') 32bit
_STATISTICS_WRITING_DATE_UTC   : 2016-02-21 18:50:29
_STATISTICS_TAGS               : BPS DURATION NUMBER_OF_FRAMES NUMBER_OF_BYTES
Audio
ID                             : 2
Format                         : MPEG Audio
Format version                 : Version 1
Format profile                 : Layer 2
Codec ID                       : A_MPEG/L2
Codec ID/Hint                  : MP2
Duration                       : 1h 21mn
Bit rate mode                  : Constant
Bit rate                       : 256 Kbps
Channel(s)                     : 2 channels
Sampling rate                  : 48.0 KHz
Compression mode               : Lossy
Delay relative to video        : 200ms
Stream size                    : 149 MiB (11%)
Language                       : Russian
Default                        : Yes
Forced                         : No
DURATION                       : 01:21:14.424000000
NUMBER_OF_FRAMES               : 203101
NUMBER_OF_BYTES                : 155981568
_STATISTICS_WRITING_APP        : mkvmerge v8.5.1 ('Where you lead I will follow') 32bit
_STATISTICS_WRITING_DATE_UTC   : 2016-02-21 18:50:29
_STATISTICS_TAGS               : BPS DURATION NUMBER_OF_FRAMES NUMBER_OF_BYTES
 





   Похожие торренты   Торрент   Размер 
В этой теме нет новых непрочитанных сообщений. Семейные обстоятельства [01-44 из 64] (2013) SATRip от Files-x

0 | 2

23.66 ГБ

В этой теме нет новых непрочитанных сообщений. Криминальные обстоятельства (2011) SATRip-AVC

120 | 9

1.36 ГБ

В этой теме нет новых непрочитанных сообщений. Личные обстоятельства [01-08 из 08] (2012) SATRip

114 | 235

4.57 ГБ

В этой теме нет новых непрочитанных сообщений. Обстоятельства (2009) DVDRip от Кинорадиомагия

201 | 8

1.37 ГБ

В этой теме нет новых непрочитанных сообщений. Личные обстоятельства [01-08 из 08] (2012) SATRip-AVC

33 | 6

5.6 ГБ

В этой теме нет новых непрочитанных сообщений. Криминальные обстоятельства (2011) SATRip от КинозалSAT

137 | 7

1.37 ГБ

В этой теме нет новых непрочитанных сообщений. Чрезвычайные обстоятельства (1980) DVDRip от Кинорадиомагия

21 | 7

1.37 ГБ




Вы не можете начинать темы
Вы не можете отвечать на сообщения
Вы не можете редактировать свои сообщения
Вы не можете удалять свои сообщения
Вы не можете добавлять вложения

Перейти:  
Для Мосгорсуда, Роскомнадзора и рекламодателей: mosgorsud-torrent[собачка]yandex.ru
 Вход
ppkBB3cker v.2 © 2008-2014 @ PPK
[ Time : 0.020s | 16 Queries | GZIP : On ]

Торрент трекер RUTOR.IN, Не можете зайти на rutor.org? Какой новый адрес рутор? Какое зеркало рутор? Не работает rutor.org и зеркала? Тогда наш торрент специально для вас. Rutor.in неофициальное зеркало rutor. В случае если у Вас заблокирован rutor или вдруг Вы не можете на него зайти, то Вы без труда сможете скачать бесплатно и без рекламы последние новинки кино, игр, сериалов и прочего у нас, на Rutor.in. Не нужно использовать прокси, чтобы зайти на рутор, достаточно воспользоваться нашим ресурсом. Все новые фильмы, игры, сериалы, книги и музыка за 2013 и 2014 годы через торрент бесплатно. Скачивайте фильмы в хорошем качестве, игры для пк, xbox, playstation без регистрации. У нас вы найдете новые Зарубежные сериалы и Русские сериалы 2013, 2014, 2015 годов. Оставайтесь с нами, качайте любимые фильмы, игры, сериалы, книги и музыку.