img image001 image001 image001 image001 image001 image001 image001 image001 image001 image001 image001 image001 image001 image001 image001

Planets Sun Sun Sun
Статистика раздачи
Автор: Nickolas3434 | Размер: 4.37 ГБ | Добавлен: 22 фев 2016
Раздают: 276    Качают: 57
Скачать торрент
Скачать торрент
Описание торрента

СообщениеДобавлено: 22 фев 2016 


Информация о фильме
Название: Волкодав из рода Серых Псов
Год выхода: 2006
Жанр: фэнтези, боевик, приключения
Режиссер: Николай Лебедев
В ролях: Александр Бухаров, Оксана Акиньшина, Александр Домогаров, Игорь Петренко, Юозас Будрайтис, Резо Эсадзе, Артем Семакин, Наталья Варлей, Татьяна Лютаева, Анатолий Белый
О фильме: Он был обречен на гибель, но выжил, чтобы отомстить за истребление своего рода. Последний человек из племени Серых Псов стал могучим воином, называющим себя Волкодав.
Избежав смерти в подземных рудниках, Волкодав пускается в путь в сопровождении своего спутника, Нелетучего Мыша. Волкодав одержим желанием покарать Людоеда, уничтожившего деревню Серых Псов.
Добравшись до замка заклятого врага, Волкодав жестоко расправляется с Людоедом. Там же он освобождает двух пленников, мудреца Тилорна и рабыню Ниилит. Вместе с ними Волкодав попадает в город Галирад, переживающий смутные времена. Кнес Галирада, стремясь спасти город от разорения, сватает свою дочь Елень за молодого воина Винитара, обещающего защиту Галираду.
Юной кнесинке предстоит дальняя дорога в земли будущего мужа. Она просит Волкодава стать ее телохранителем в опасном путешествии. Согласившись служить кнесинке, Волкодав оказывается втянутым в водоворот таинственных событий, проливающих свет на истинную цель поездки…

Выпущено: Централ Партнершип
Продолжительность: 02:22:00
Перевод: Оригинал (лицензия)
Файл
Кодек: x264
Качество: BDRip (источник: Blu-ray Disc)
Видео: 1280x546 (2,35:1), 23.976 fps, 3770 kbps
Аудио: AC-3, 6 ch, 640 kbps
Скачать: сэмпл
Скриншоты

Общее
Уникальный идентификатор : 176228674822429877096119641737202664975 (0x8494687F2421DF108AEBE02D5AE6860F)
Полное имя : Volkodav.iz.roda.Serykh.Psov.2006.BDRip.720p.Rus.mkv
Формат : Matroska
Версия формата : Version 2
Размер файла : 4,37 Гбайт
Продолжительность : 2 ч. 21 м.
Общий поток : 4410 Кбит/сек
Название фильма : Волкодав из рода Серых Псов (2006)
Дата кодирования : UTC 2016-02-15 18:17:11
Программа кодирования : mkvmerge v5.8.0 ('No Sleep / Pillow') built on Sep 2 2012 15:37:04
Библиотека кодирования : libebml v1.2.3 + libmatroska v1.3.0
Видео
Идентификатор : 1
Формат : AVC
Формат/Информация : Advanced Video Codec
Профиль формата : High@L4.1
Параметр CABAC формата : Да
Параметр ReFrames формата : 9 кадров
Идентификатор кодека : V_MPEG4/ISO/AVC
Продолжительность : 2 ч. 21 м.
Битрейт : 3770 Кбит/сек
Ширина : 1280 пикселей
Высота : 546 пикселей
Соотношение сторон : 2,35:1
Режим частоты кадров : Постоянный
Частота кадров : 23,976 кадра/сек
Цветовое пространство : YUV
Субдискретизация насыщенности : 4:2:0
Битовая глубина : 8 бит
Тип развёртки : Прогрессивная
Бит/(Пиксели*Кадры) : 0.225
Размер потока : 3,65 Гбайт (83%)
Заголовок : Release by AlexKa
Библиотека кодирования : x264 core 148 r2638 7599210
Настройки программы : cabac=1 / ref=9 / deblock=1:-3:-3 / analyse=0x3:0x133 / me=umh / subme=11 / psy=1 / psy_rd=1.00:0.10 / mixed_ref=1 / me_range=32 / chroma_me=1 / trellis=2 / 8x8dct=1 / cqm=0 / deadzone=21,11 / fast_pskip=0 / chroma_qp_offset=-3 / threads=12 / lookahead_threads=3 / sliced_threads=0 / nr=0 / decimate=0 / interlaced=0 / bluray_compat=0 / constrained_intra=0 / bframes=11 / b_pyramid=2 / b_adapt=2 / b_bias=0 / direct=3 / weightb=1 / open_gop=0 / weightp=2 / keyint=240 / keyint_min=23 / scenecut=40 / intra_refresh=0 / rc=2pass / mbtree=0 / bitrate=3770 / ratetol=1.0 / qcomp=0.60 / qpmin=0 / qpmax=69 / qpstep=4 / cplxblur=20.0 / qblur=0.5 / ip_ratio=1.40 / pb_ratio=1.30 / aq=1:0.70
Язык : Russian
Аудио
Идентификатор : 2
Формат : AC-3
Формат/Информация : Audio Coding 3
Расширение режима : CM (complete main)
Параметр Endianness формата : Big
Идентификатор кодека : A_AC3
Продолжительность : 2 ч. 21 м.
Вид битрейта : Постоянный
Битрейт : 640 Кбит/сек
Каналы : 6 каналов
Расположение каналов : Front: L C R, Side: L R, LFE
Частота : 48,0 КГц
Метод сжатия : С потерями
Размер потока : 650 Мбайт (15%)
Заголовок : Rus
Язык : Russian
Меню
00:00:00.000 : :Chapter 01
00:07:17.854 : :Chapter 02
00:11:49.375 : :Chapter 03
00:14:35.165 : :Chapter 04
00:19:08.230 : :Chapter 05
00:24:34.890 : :Chapter 06
00:30:20.026 : :Chapter 07
00:37:31.040 : :Chapter 08
00:45:22.469 : :Chapter 09
00:50:50.505 : :Chapter 10
00:54:43.446 : :Chapter 11
01:04:55.182 : :Chapter 12
01:14:08.402 : :Chapter 13
01:24:05.582 : :Chapter 14
01:29:35.328 : :Chapter 15
01:40:03.455 : :Chapter 16
01:46:16.328 : :Chapter 17
01:54:54.804 : :Chapter 18
02:00:23.299 : :Chapter 19
02:08:56.478 : :Chapter 20
02:15:40.132 : :Chapter 21
02:21:29.481 : :Chapter 22
x264 [info]: frame I:1699 Avg QP:16.82 size: 86201
x264 [info]: frame P:52998 Avg QP:19.32 size: 33833
x264 [info]: frame B:149567 Avg QP:21.50 size: 13861
x264 [info]: consecutive B-frames: 4.6% 7.2% 11.1% 23.0% 15.4% 29.3% 4.7% 1.4% 1.2% 0.8% 0.5% 1.0%



   Похожие торренты   Торрент   Размер 
В этой теме нет новых непрочитанных сообщений. Волкодав из рода Серых Псов (2006) BDRip 1080p

83 | 13

4.37 ГБ

В этой теме нет новых непрочитанных сообщений. Волкодав из рода Серых Псов (2006) BDRip от HQCLUB

60 | 6

2.18 ГБ

В этой теме нет новых непрочитанных сообщений. Волкодав: Последний из рода Серых Псов (2006) PC

486 | 13

1.18 ГБ

В этой теме нет новых непрочитанных сообщений. Волкодав из рода серых псов (2006) HDRip от Youtracker

192 | 31

2.19 ГБ

В этой теме нет новых непрочитанных сообщений. Волкодав из рода Серых Псов (2006) HDRip-AVC от NNM-CLUB

322 | 37

2.17 ГБ

В этой теме нет новых непрочитанных сообщений. Волкодав из рода Серых Псов (2006) HDRip от Шкипер

276 | 19

1.47 ГБ

В этой теме нет новых непрочитанных сообщений. Мария Семёнова - Волкодав 01. Волкодав из рода Серых Псов (2011) MP3

135 | 6

1.29 ГБ




Вы не можете начинать темы
Вы не можете отвечать на сообщения
Вы не можете редактировать свои сообщения
Вы не можете удалять свои сообщения
Вы не можете добавлять вложения

Перейти:  
Для Мосгорсуда, Роскомнадзора и рекламодателей: mosgorsud-torrent[собачка]yandex.ru
 Вход
ppkBB3cker v.2 © 2008-2014 @ PPK
[ Time : 0.035s | 15 Queries | GZIP : On ]

Торрент трекер RUTOR.IN, Не можете зайти на rutor.org? Какой новый адрес рутор? Какое зеркало рутор? Не работает rutor.org и зеркала? Тогда наш торрент специально для вас. Rutor.in неофициальное зеркало rutor. В случае если у Вас заблокирован rutor или вдруг Вы не можете на него зайти, то Вы без труда сможете скачать бесплатно и без рекламы последние новинки кино, игр, сериалов и прочего у нас, на Rutor.in. Не нужно использовать прокси, чтобы зайти на рутор, достаточно воспользоваться нашим ресурсом. Все новые фильмы, игры, сериалы, книги и музыка за 2013 и 2014 годы через торрент бесплатно. Скачивайте фильмы в хорошем качестве, игры для пк, xbox, playstation без регистрации. У нас вы найдете новые Зарубежные сериалы и Русские сериалы 2013, 2014, 2015 годов. Оставайтесь с нами, качайте любимые фильмы, игры, сериалы, книги и музыку.