img image001 image001 image001 image001 image001 image001 image001 image001 image001 image001 image001 image001 image001 image001 image001

Planets Sun Sun Sun
Статистика раздачи
Автор: Nickolas3434 | Размер: 743.67 МБ | Добавлен: 23 фев 2016
Раздают: 1494    Качают: 91
Скачать торрент
Скачать торрент
Описание торрента

СообщениеДобавлено: 23 фев 2016 


Информация о фильме
Название: Правнуки
Год выхода: 2015
Жанр: Драма
Режиссер: Антон Гребенщиков
В ролях: Александр Барановский, Дмитрий Мазуров, Антон Гребенщиков, Светлана Грунина, Платон Харитонов, Павел Харин, Григорий Шустер, Людмила Трошина, Виктория Левченко, Тамара Кочержинская
О фильме:
Двое молодых друзей на 9 мая узнают о том, что далеко на другом конце страны нашлись останки их прадедов, которые пропали на войне. Прежде, чем отправиться в дальний путь, им предстоит дать ответ самим себе на многие вопросы, о которых забывать не следует…

Страна: Россия
Студия: "Акростих" совместно с "Взгляд"
Продолжительность: 01:20:16
Перевод: Не требуется
Файл
Кодек: XviD
Качество: HDRip
Видео: 688x288 (2.39:1), 24.000 fps, XviD build 73 ~1158 kbps avg, 0.24 bit/pixel
Звук: 48 kHz, MPEG Layer 3, 2 ch, ~128.00 kbps avg
Субтитры: Нету
Семпл
General
Complete name : D:ТоррентФильмыРИП ОТ ШКИПЕРПравнукиPravnuki.HDRip by shkiper.avi
Format : AVI
Format/Info : Audio Video Interleave
File size : 744 MiB
Duration : 1h 20mn
Overall bit rate : 1 295 Kbps
Writing application : VirtualDubMod 1.5.10.3 | www.virtualdub-fr.org || (build 2550/release)
Writing library : VirtualDub build 35576/release
Video
ID : 0
Format : MPEG-4 Visual
Format profile : Advanced Simple@L5
Format settings, BVOP : 1
Format settings, QPel : No
Format settings, GMC : No warppoints
Format settings, Matrix : Custom
Codec ID : XVID
Codec ID/Hint : XviD
Duration : 1h 20mn
Bit rate : 1 158 Kbps
Width : 688 pixels
Height : 288 pixels
Display aspect ratio : 2.40:1
Frame rate : 24.000 fps
Color space : YUV
Chroma subsampling : 4:2:0
Bit depth : 8 bits
Scan type : Progressive
Compression mode : Lossy
Bits/(Pixel*Frame) : 0.244
Stream size : 665 MiB (89%)
Writing library : XviD 73
Audio
ID : 1
Format : MPEG Audio
Format version : Version 1
Format profile : Layer 3
Mode : Joint stereo
Mode extension : MS Stereo
Codec ID : 55
Codec ID/Hint : MP3
Duration : 1h 20mn
Bit rate mode : Constant
Bit rate : 128 Kbps
Channel(s) : 2 channels
Sampling rate : 48.0 KHz
Compression mode : Lossy
Stream size : 73.2 MiB (10%)
Alignment : Split accross interleaves
Interleave, duration : 42 ms (1.00 video frame)
Interleave, preload duration : 500 ms
Writing library : LAME3.99r
Encoding settings : -m j -V 4 -q 3 -lowpass 17 -b 128

Релиз от:



   Похожие торренты   Торрент   Размер 
В этой теме нет новых непрочитанных сообщений. Правнуки (2015) HDRip от torrentfilm

712 | 56

1.46 ГБ

В этой теме нет новых непрочитанных сообщений. Правнуки (2015) BDRip 720p

1352 | 59

3.55 ГБ

В этой теме нет новых непрочитанных сообщений. 33 / The 33 (2015) HDRip от Шкипер | P

504 | 43

754.51 МБ

В этой теме нет новых непрочитанных сообщений. Полтергейст / Poltergeist (2015) HDRip от Шкипер

384 | 48

743 МБ

В этой теме нет новых непрочитанных сообщений. Синистер 2 / Sinister 2 (2015) HDRip от Шкипер

263 | 32

745.39 МБ

В этой теме нет новых непрочитанных сообщений. Легенда / Legend (2015) HDRip от Шкипер

897 | 51

750.94 МБ

В этой теме нет новых непрочитанных сообщений. Эверест / Everest (2015) HDRip от Шкипер | Лицензия

803 | 48

747.27 МБ




Вы не можете начинать темы
Вы не можете отвечать на сообщения
Вы не можете редактировать свои сообщения
Вы не можете удалять свои сообщения
Вы не можете добавлять вложения

Перейти:  
Для Мосгорсуда, Роскомнадзора и рекламодателей: mosgorsud-torrent[собачка]yandex.ru
 Вход
ppkBB3cker v.2 © 2008-2014 @ PPK
[ Time : 0.020s | 14 Queries | GZIP : On ]

Торрент трекер RUTOR.IN, Не можете зайти на rutor.org? Какой новый адрес рутор? Какое зеркало рутор? Не работает rutor.org и зеркала? Тогда наш торрент специально для вас. Rutor.in неофициальное зеркало rutor. В случае если у Вас заблокирован rutor или вдруг Вы не можете на него зайти, то Вы без труда сможете скачать бесплатно и без рекламы последние новинки кино, игр, сериалов и прочего у нас, на Rutor.in. Не нужно использовать прокси, чтобы зайти на рутор, достаточно воспользоваться нашим ресурсом. Все новые фильмы, игры, сериалы, книги и музыка за 2013 и 2014 годы через торрент бесплатно. Скачивайте фильмы в хорошем качестве, игры для пк, xbox, playstation без регистрации. У нас вы найдете новые Зарубежные сериалы и Русские сериалы 2013, 2014, 2015 годов. Оставайтесь с нами, качайте любимые фильмы, игры, сериалы, книги и музыку.